香港功夫大旋風(創作譜面:shimelar)

曲名 香港功夫大旋風
制作者名 shimelar
音源 ---
譜面動画
制作者コメント ボツで。
次から譜面の書き方を変えます。
Twitter-@shimelar
BPM EASY BASIC ADVANCED EXPERT MASTER
178 - - - - 11

EASY


BASIC


ADVANCED


EXPERT


MASTER

(178)
{1}
3b/6b,
{16}
7,2,8,1,8,2,7,8,3,6,4,5,4v2[8:7],5,6,7,
{8}
,6,,7,,2-7[16:1],1,1,
8b,3,1,4,1,4,5,6,
8,5,8,5,1,8,{16}4-1[8:1],3,{8}2,
45,8,3,6,7,2,6,3,
6h[2:1]/3,5,4,5,3h[8:1],7h[4:1],{16}3,4,5-8[8:1],6h[16:5],
{8}
,{16},4,{8}4,3,2,7,5-2[2:1],3,
4,3,2-6[2:1],3,4,5,6q1[1:1],5,
4,4,4,4,3,3,3,3,
2h[4:1],7,7h[4:1],1,1h[4:1],8,{16}8,1,8,1,
{8}
27,,36,36,27,,45,45,
{16}
3,4,5,6,4,3,2,1,{8}78,18,12,78,
3h[4:1]/6h[4:1],,,25,47,,45,45,
{16}
6,5,4,3,5,6,7,8,2,1,8,7,8,1q5[16:11],8,1,
{8}
8h[4:1],,,7,5v7[4:1],,6,6,
5,4,3,3,4,5,5h[4:1],,
4-7[8:3],,7,7q3[12:1],6h[4:1],,,36,
{16}
4,2,4,3,7,5,7,2,3,5,4,6,2,5,2,7,
{8}
3h[4:1]/6h[4:1],,,45,2h[4:1]/7h[4:1],,,27,
{16}
1,3,8,3,7,1,8,1,{8}78,18,12,78,
8h[4:1]/2h[4:1],,,15,6h[4:1]/4h[4:1],,,37,
{16}
5,6,5,4,6,7,4,3,7,8,1,2,3p4[4:3],2,1,8,
{8}
7h[4:1],,,5,4p7[4:1],,3,3,
{16}
3,2,1,8,{8}8,8,1,1,1h[4:1],,
2q7[4:3],,6,6,7,,7-3[16:1],8,
{12}
1b,2,2,8b,7,7,1b,2,3,8b,7,6,
{1}
7q2[8:5]/3<2[8:5],
{8}
78,,12,{16},8,{8}1,18,27,,
{16}
4,5,4,5,{8}4q8[8:1],36,5,3,2,18,
{16}
4h[8:3],,3,2,1,,5,6,7,3,7,3,{8}5,34,
7h[2:1],5,6,8,1h[2:1],6,5,4,
3q7[12:1],2p6[12:1],3,2,5p7[10:1],5,2b,,
{16}
5,4,5z1[6:1],4,{8}5-2[8:1],,,,38,38,
{16}
5h[8:3],6,7,8,,4,3,2,,6,2,6,{8}4,67,
4h[8:3],6,5,3,2,4,6p1[4:1],45,
,4,{16}3,3,{8}3,5p7[10:1],5,2b,,
2h[4:1],,5h[4:1],,4h[4:1],,7h[4:1],,
1,2,1,2,8,7-3[8:1],8,7,
6h[2:1],5,5,5,3h[2:1],4,4,4,
5,{16}4-6[12:1],3,{8}2,34,4q2[10:1],,7b,,
45,36,45,36,27,1,8,27,
8h[2:1],1,2,3,1h[2:1],7,8,7,
{16}
6,2,3,4,5s1[8:3],6,7,8,{2}1,
{16}
8,7,1q5[3:1],8,{8}8,1,1p5[12:1],,1b,,

6v7[16:1],,3v2[16:1],,5,5^8[8:1],,5,
5-2[8:1],2-6[8:1],6v1[8:1],1s5[4:1],,,7-3[12:1],7,
1-4[12:1],,1,8-5[12:1],,8,2p5[8:1],,
3v8[12:1],4-1[12:1],3,4v6[12:1],,8p2[12:1],8-4[12:1],8q6[12:1],
,,5-3[16:1],2-8[16:1],5-1[12:1],2-6[12:1],5,,
7^5[16:1]/8^2[16:1],78,,{16}4z8[6:1],3-8[8:1],{8}4,,,1,
1,2>6[12:1],1,2q6[12:1],1,2p6[12:1],,2^7[16:1],
3s7[12:1],,,6z2[12:1],8-4[16:1],,,,
1v4[8:1]/3v8[8:1],,13,,13,1-5[12:1]/3-7[12:1],,13,
,,{16}6q2[16:1],2q6[16:1],6<2[16:1],2>6[16:1],{8},,,,
2-7[8:1],7z3[8:1],,4p5[6:1],4-1[12:1],,,,
7q4[12:1],7p2[12:1],,,3q8[12:1],3p6[12:1],,,
4/5p8[12:1],,4/5-3[12:1],,{16}5,,,5,,,45,,{8}
5-8[8:1],5^8[8:1],5-1[8:1],5q1[8:1],5-2[8:1],5v2[8:1],,,
5-2[8:1],5^2[8:1],5-1[8:1],5p1[8:1],5-8[8:1],5v8[8:1],,,
{16},,,3^5[16:1]/8^6[16:1],38,2v5[16:1]/1v6[16:1],,,{8},,4>5[2:1],,

{1}
4b,
4-8[12:7]/5-1[12:7],
{16}1,7,1,7,{8}8,12,2,23,3,34,
{16}5,3,5,3,{8}5,46,35,35,46,57,
7,2,7-4[12:1]/8-3[12:1],1,78,,3<7[12:1],2,
{16}1,2,3,4,1,2,3,4,5,,4h[4:1],,5,6,7,8,
1,8,1,8,{8}2,78,7,67,6,56,
{16}3,5,3,5,{8}2,45,46,62,28,18,
1>5[4:1],1,5-1[4:1],5<1[8:1],,,,,
{16}3,2,1,8,{8}7,6b,7q4[12:1]/5v2[12:1],6b,75,,
3p7[12:1],3,6q2[12:1],6,1q8[10:1],1,1,,
4>8[12:1]/5^7[12:1],45,45,,5<1[12:1]/4^2[12:1],45,45,,
{16}
6,5,6,7,6,5,6,7,6,5,6,7,6,5,6,7,
3,2,3,4,3,2,3,4,3,2,3,4,2,3,4,5,
{4}6p7[12:1],6b,{16}4,,,4z8[8:1],,,4b,,
,,6v7[12:1],,6b,,,,4,,4z8[16:1],4,,,4b,,
6q1[4:3],5,4,,,,5,4,3,,,,4,3,2v5[8:3],,
2,,,,5v8[8:3],4,3,,,,,,8,7,6,,
1,2,3,4,8,7,6,5,1,2,3,4,8,7,6,5,
3,6,4,5,3,5,3,5,4,6,4,6,5,6,5,4,
{1}
3h[2:5]/6h[2:5],,,,,,E

名前:
コメント:

タグ:

+ タグ編集
  • タグ:

このサイトはreCAPTCHAによって保護されており、Googleの プライバシーポリシー利用規約 が適用されます。

最終更新:2014年08月17日 16:31