Jack-the-Ripper♦

BPM EASY BASIC ADVANCED EXPERT MASTER
210 3 5 8 11 13+

EASY


BASIC


ADVANCED


EXPERT

(210){4},,,,,,{8},


3,4,3,6,5,6,3,4,1,1,
6,5,6,3,4,3,6,5,8,8,
3,4,3,6,5,6,3,4,1,8,
2,1,2,7,8,7,2,7,2,8,1,8,1,8,
2,4,2,7,5,7,2,4,3,3,
7,5,7,2,4,2,7,5,6,6,
3,5,3,6,4,6,3,5,1,8,
3,1,3,6,8,6,2,7,2,8,1,8,1,8,

{4}1h[2:1],,3,3h[2:1],,5,5h[2:1],,7,1b,{8}1b,


1>7[2:1],,,,,,,8,,8,
8<2[2:1],,,,,,,1,,1,
1p4[2:1],,,,,,,8,,8,
8h[2:1],,,,7h[2:1],,,,6h[2:1],,,,
5p8[2:1],,,,,,,6,,6,
6q3[2:1],,,,,,,1,,1,
1s5[2:1],,,,,,,1,,1,
1h[2:1],,,,5h[2:1],,,,7,,,,

3,4,,6,5,,2,4,,7,5,,


{4}
2h[4:1],1h[4:1],8h[4:1],7h[4:1],6h[4:1],5h[4:1],
4h[2:1],,5,4,5h[4:1],6h[4:1],
7h[4:1],8h[4:1],1h[4:1],2h[4:1],3h[4:1],4h[4:1],
5h[2:1],,1-5[8:1],,,,
2h[4:1],1,5h[4:1],6,3h[4:1],4,
8h[2:1],,7,7,2h[4:1],1h[4:1],
8h[4:1],7h[4:1],2h[4:1],1h[4:1],8h[4:1],7,
18,,1-5[8:1]/8-4[8:1],,,,

1,1-5[8:1],,8,8-4[8:1],,
2,2^7[8:1],,1>5[8:1],,,

15,26,37,48,51,48,1b/8b,{8}2b/7b,


7q5[2:1],,,,,,,57,,6,
6q3[2:1],,,,,,,42,,3,
3q1[2:1],,,,,,,28,,1,
1h[2:1],,,,3h[2:1],,,,5,,,,

78,78,,34,34,,12,12,,56,56,,18,18,,24,24,,75,75,,


(228){8}
2b/7b,,2,1,2,,48,,15,,
72,,7,8,7,,51,,84,,
27,,2,8,1v3[8:1],,7,,7,,
37,,26,,15,,84,,15,,
26,,3,6,1-5[8:1],,8-4[8:1],,,,
2,,6,3,4-8[8:1],,1,,1,,
67,,56,,45,,34,,23,,
18,,,,2,,7b,,,,

1h[4:1]/2h[4:1],,,1h[4:1]/2h[4:1],,,3h[4:1]/4h[4:1],,,3h[4:1]/4h[4:1],,,
5h[4:1]/6h[4:1],,,5h[4:1]/6h[4:1],,,7h[4:1]/8h[4:1],,,78,,,
{4}2,4,6,8,5,3,

(240)
1,7,2,{5}8,7,6,1,2,3,


{2}7h[2:1],5h[4:3],{8},,{3}1,3h[3:1],{12}4h[12:5],
{6},,8h[48:17],{16},,,6h[16:5],{4},{6}2h[3:1],,8h[48:17],{16},,,1,{4},
{2}2h[2:1],4h[4:3],{8},,8,,,6h[8:3],,,
3h[8:3],,,4h[8:3],,,5,,
{3}56,45,34,

{8}2b/7b,,,,,,4,5,4h[8:3],,,8h[8:3],,,2h[4:1],,
{8}6h[8:3],,,3h[8:3],,,4h[4:1],,5h[8:3],,,6h[8:3],,,7,{12},
{8}6h[4:3],,,,,,2,4,2h[8:3],,,4h[8:3],,,8h[4:1],,
6h[8:3],,,1h[8:3],,,2h[4:1],,3h[8:3],,,8h[8:3],,,7,,

{12}7,,,,,{24}3,{12},,,2,,,,1,,,,8,,,,,7,,,,,,3b/6b,,,,,{24},

{8}1,8,2,7,1,8,2,7,1,8,2,7,


1b,,5,4,6,,3,4,2,5,3,4,
2,,8,1,7,,2,1,3,8,2,1,
3,,7,3,5,,2,1,3,8,4,7,
5,,2,6,4,,7,8,6,1,5,2,
4,,3,6,3,,8,1,7,2,6,3,
5,,2,7,2,,8,4,7,3,6,2,
5,,1,8,1>5[4:1],,,,,8,,8,
1b/2b,,,5b/6b,,,1b/2b,,,5b/6b,,,

{4}
3h[4:3],,,7h[2:1],,1-5[8:1],
8,8-4[8:1],2,2-5[8:1],7,7-4[8:1],
1b,,,27,,1-3[8:1],
5,5-7[8:1],3,3-5[8:1],7,7-1[8:1],
3b,,,27,,1^3[8:1],
8,8^6[8:1],2,2^4[8:1],7,7^5[8:1],
2b,,,27,,1-5[8:1],
8,8-4[8:1],2,2-5[8:1],7,7-4[8:1],
1,1p4[8:1],8,8q5[8:1],,3>4[4:5],
,,,,,,


(210){4}8h[2:1],,6,6h[2:1],,4,4h[2:1],,2,8b,{8}8b,

{8}
8z4[2:1],,,,,,,1,,1,
1s5[2:1],,,,,,,6,,6,
6p3[2:1],,,,,,,2,,3,
3h[2:1],,,,5h[2:1],,,,7,,,,

2,13,,6,57,,3,24,,7,68,,12,38,,78,16,,


3,4,5,6,5,4,3,2,1,8,7,6,5,4>5[1:2],

MASTER

(210)
{4},,,,,,
{8},
6,5,4,3,4,5,2,1,7,8,
3,4,5,6,5,4,7,8,2,1,
6,5,4,3,4,5,2,1,7,8,
1-5[8:1],7,1,8-4[8:1],2,8,
2-5[8:1],1,2,7-4[8:1],8,7,1,8,
3,4,5,6,5,4,7,8,2,1,
6,5,4,3,4,5,2,1,7,8,
3,4,5,6,5,4,7,8,2,1,
8-4[8:1],2,8,1-5[8:1],7,1,
7-4[8:1],8,7,2-5[8:1],1,2,8,1,

{4}
6q3[4:3],,5p8[4:3],5,,4q1[8:5],4,,7,

{8}
4/5b,,8/1b,
3,4,5,6,5,4,7,8,2,1,
7,6,5,4,5,6,2,1,7,8,
2,3,4,5,4,3,7,8,2,1,
8-4[8:1],2,8,1-5[8:1],7,1,
7^4[8:1],8,7,2^5[8:1],1,2,
7,6,5,4,5,6,2,1,7,8,
2,3,4,5,4,3,7,8,2,1,
6,5,4,3,4,5,2,1,7,8,
1-5[8:1],7,1,8-4[8:1],2,8,
2^5[8:1],1,2,7^4[8:1],8,7,

3,2-5[8:1],,26,7-3[8:1],,72,1-5[8:1],,17,8b,,

{4}
2h[4:1],3h[4:1],5h[4:1],7h[4:1],6h[4:1],
4q5[4:1],4h[4:2],,5,63,
1h[4:1],8h[4:1],3h[4:1],4h[4:1],5h[4:1],
6h[4:1],5h[4:1],
{16}
4h[16:3],,,3,,4,3,2,,,5,,1,,6,,8,,7,,6,,5,,4,,3,,
{4}
6h[4:1],7h[4:1],1h[4:1],3h[4:1],2h[4:1],
8q1[4:1],8h[2:1],,1,72,
4h[4:1],5h[4:1],2h[4:1],1h[4:1],8h[4:1],
7h[4:1],8h[4:1],
{16}
1h[16:3],,,2,,1,2,3,,,8,,4,,7,,5,,6,,7,,8,,1,,2,,36,,,,

{8}
4,5,4,5,73,,5,4,5,4,26,,
3,6,3,6,82,,6,3,6,3,17,,
4,6,3,7,2,8,
{16}
1,2,3,4,5,6,7,8,1b/3,,,,

{8}
8b/6,,
74,15,83,
{4}
2>7[4:5]/5s1[4:5],,,,,,,
{16}
1,2,3,4,5,6,7,8,1,2,3,4,
8,7,6,5,4,3,2,1,8,7,6,5,
4,,8,1,2,,5,,8,7,6,,
4,,1,2,3,,5,,8,7,6,,
{8}
4,3-5[8:1],,35,6-4[8:1],,36,
2-5[8:1],,26,7-4[8:1],,27,1-5[8:1],,17,8-4[8:1],,28,1b,,

(228){4}
2h[4:1],4h[4:1],6h[4:1],8h[4:1],
5p4[4:1],5h[2:1],,3,26,
1h[4:1],7h[4:1],5h[4:1],3h[4:1],1h[4:1],
4q6[4:1],4h[2:1],,7,
{8}
8,82,1,17,
{4}
6h[4:1],8h[4:1],2h[4:1],4h[4:1],
1p8[4:1],1h[2:1],,7,26,
5h[4:1],3h[4:1],1h[4:1],7h[4:1],5h[4:1],
8q2[4:1],8h[2:1],,3,
{8}
4,46,5,53,
{4}
4-7[8:1],4-1[8:1],4,8^5[8:1],8^3[8:1],8,
5-2[8:1],5-8[8:1],5,1^4[8:1],1^6[8:1],1,
1h[4:1],3h[4:1],5h[4:1],8h[4:1],6h[4:1],4,
{8}
37,,82,,15,,
{10}26,,35,,48,,37,,46,,15,,
(240){8}
6h[4:1]/3,,3,,7h[4:2]/3,,3,,4,,
5h[4:1]/4,,4,5,4,,6h[4:1]/3,,3,6,3,7,3,,
8h[4:1]/4,,4,8,4,5,4,,
3h[4:1]/6,,6,,2h[4:2]/6,,6,,5,,
4h[4:1]/5,,5,4,5,,3h[4:1]/6,,6,3,6,2,6,,
{12}
15,,,,84,,,,73,,,,
{8}
6h[8:7],,,,,,5,4,
{64}
3h[64:25],,,,,,,,,,,,,,,,,,,,,,,,,
7h[64:18],,,,,,,,,,,,,,,,,,
1h[64:19],,,,,,,,,,,,,,,,,,,
5h[64:25],,,,,,,,,,,,,,,,,,,,,,,,,
6h[64:18],,,,,,,,,,,,,,,,,,
8h[64:19],,,,,,,,,,,,,,,,,,,
4h[64:25],,,,,,,,,,,,,,,,,,,,,,,,,
2h[64:18],,,,,,,,,,,,,,,,,,
1,,,,,,,,,,,,,,,,,,,,

{8}
3h[8:7],,,,,,4,5,
{64}
6h[64:25],,,,,,,,,,,,,,,,,,,,,,,,,
2h[64:18],,,,,,,,,,,,,,,,,,
8h[64:19],,,,,,,,,,,,,,,,,,,
4h[64:25],,,,,,,,,,,,,,,,,,,,,,,,,
3h[64:18],,,,,,,,,,,,,,,,,,
1h[64:19],,,,,,,,,,,,,,,,,,,
5h[64:25],,,,,,,,,,,,,,,,,,,,,,,,,
7h[64:18],,,,,,,,,,,,,,,,,,
8,,,,,,,,,,,,,,,

{12}
3/6h[12:30],,,,,4,,,,,5,,,,,7,,,,8,,,,,1,,,,,,2,,,,,,

{8}15,15,26,26,37,37,84,48,73,37,26,26,
1,8,2,7,1,8,4,5,3,6,4-8[4:1],5,4h[8:2],,
{32},,,,37,26,15,,,,,4,,,,3,,,,6,,,,2,,,,7,,,,1,,,,8,,,,
{8}6,5,4,3,7,8,3,4,5,6,2,1,
{4}3^6[4:1],6^1[4:1],1^4[4:1],4-8[4:1],8^5[16:1],3,
{8}8,1,7,2,8,1,5,4,6,3,5-1[4:1],4,5h[4:1],,
{32},,,,26,37,84,,,,,5,,,,6,,,,3,,,,7,,,,2,,,,8,,,,1,,,,
{8}3,4,5,6,2,1,6,5,4,3,7,8,
{16}1^4[8:1],,,,1,,8q5[8:1],,,,8,,1p4[8:1],,,,1,,8^5[8:1],,,,8,,

{8}1,7,2,6,3,5,2,8,3,7,4,6,
{4}3-6[4:1],6-1[4:1],1-4[4:1],4-8[4:1],8-4[16:1],3,
{8}8,2,7,3,6,4,7,1,6,2,5,3,
{4}6-3[4:1],3-8[4:1],8-5[4:1],5-1[4:1],1-5[16:1],6,
{8}7,2,6,3,8,1,6,3,7,2,5,4,
{4}6^3[4:1],3^8[4:1],8^5[4:1],5-1[4:1],1^4[16:1],6,
{8}3,6,2,7,4,5,2,7,3,6,1,8,
{4}3^6[4:1],6q2[4:1],2q6[4:1],6^1[4:1],1-5[8:1],3b,
6^3[4:1],3p7[4:1],7p3[4:1],3^8[4:1],8-4[8:1],6b,

{16}
2,1,8,7,6,5,
3,2,1,8,7,6,7,8,1,2,3,4,
6,7,8,1,2,3,

(210){4}
4q5[4:3],,6q3[4:3],6,,2^7[8:5],2,,2,1b/5b,

{8}8b/4b,
6,5,4,3,4,5,7,8,2,1,
4,5,6,7,6,5,2,1,7,8,
5,4,3,2,3,4,7,8,2,1,
{16}
4,,8,1,2,,5,,1,8,7,,
4,,1,2,3,,5,,8,7,6,,4,,
{8}
3-5[8:1],,35,6-4[8:1],,36,
2-5[8:1],,26,7-4[8:1],,72,
1-5[8:1],,17,8b,,

1,82,37,46,5,46,
3-5[8:1]/7-5[8:1],,3-1[8:1]/7-1[8:1],,37,,,

{1}1-4[1:2]/4^6[1:2]
,
,
,
,
,
E

名前:
コメント:

タグ:

+ タグ編集
  • タグ:

このサイトはreCAPTCHAによって保護されており、Googleの プライバシーポリシー利用規約 が適用されます。

最終更新:2021年08月21日 15:18