Ignis Danse

BPM EASY BASIC ADVANCED EXPERT MASTER
246 2 5 7 12 14

EASY


BASIC

(246.0){1},,,,,,,,,
{1}1,
{1}1,
{1}2,
{2}2,2,
{1}3,
{1}3,
{1}4,
{1}4/5,
{1}5,
{1}5,
{1}6,
{2}6,6,
{1}7,
{1}7,
{1}8,
{1}1/8,,
{1}1-5[4:5],,,,
{1}8-4[4:5],,,,
{1}2-6[4:5],,,,
{1}7-3[4:5],,,,
{4},,,4/5,{1},
{2}4,4,
{2}5,5,
{2}3,3,
{2}6,6,
{2}5,5,
{2}4,4,
{2}3,3,
{1}4/5,
{4},,,4,
{4},4,,6,
{4},6,,5,
{4},5,,4,
{4},4,,3,
{4},3,,4,
{4},4,,5/6,
{4},5/6,,,
{2},6-3[4:5],{1},,,
{2},2-7[4:5],{1},,,
{2},8,
{2},8,
{2},1,
{2},1,
{2},1b/8b,{1},
{2},1h[4:3]/8h[4:3],{1},
{2}1/8,1,
{2}1,2,
{2}2,3,
{2}3,4/5,
{2},5,
{2}5,6,
{2}6,7,
{2}7,1/8,
{2},8,
{2}8,7,
{2}7,6,
{2}6,4/5,
{2},4,
{2}4,3,
{2}3,2,
{2}2,1/8,
{2},1h[1:1],{1},
{2},8h[1:1],{1},
{2},1,
{2}1,2,
{2}2,3,
{2}3,4/5,
{2},5h[1:1],{1},
{2},4h[1:1],{1},
{2},5,
{2}5,6,
{2}6,7,
{2}7,1/8,
{2},1h[1:1]/8h[1:1],{1},
{2},1b,{1},
{2},8,
{2},7,
{2},6,
{2},5,
{2}5,4/5,
{2},4/5,
{2},5-8[4:5],{1},,
{2}1-4[4:5],{1},,
E

ADVANCED

(246.0){1},,,,,
{1}4,
{1}5,
{2}4,5,
{1}4/5,
{2}4,4,
{2}3,3,
{2}5,5,
{2}6,6,
{2}4,3,
{2}5,6,
{2}4/5,3/6,
{1}2/7,
{4}4,4,4,,
{4}5,5,5,,
{4}3,3,3,,
{4}6,6,6,,
{4}2,2,2,,
{4}7,7,7,,
{4}1,1,8,8,
{1}1s5[1:1],,
{1}8-4[2:1],
{1}1-5[2:1],
{1}7-3[2:1],
{1}2-6[2:1],
{4}8,,,8,
{4}8,1,1,,
{1}8v5[8:5],
{1}1v4[8:5],
{1}7v6[8:5],
{1}2v3[8:5],
{2}7,7,
{2}2,2,
{1}1h[1:2]/8h[1:2],,
{2},2-7[2:1],
{2},6-3[2:1],
{2},1s5[1:1],{1},
{2}6,6,
{2}3,3,
{2}5,4,
{1}4/5,
{2}2,2,
{2}7,7,
{2}1,8,
{1}1^4[4:3]/8^5[4:3],
{4},,,4,
{4},3,,5,
{4},6,,4h[2:1],
{4},5h[2:1],,4,
{4},,,1,
{4},2,,8,
{4},7,,1h[2:1],
{4},8h[2:1],,1b,
{2},8,
{2}6,4,
{2}2,1/8,
{2}2/7,3/6,
{2},4/5,
{2}3/6,2/7,
{2}1/8,2/7,
{2}2/6,3b/7b,
{2},4h[2:1]/8h[2:1],
{2},3h[2:1]/7h[2:1],
{2},2h[2:1]/6h[2:1],
{2},1h[2:1]/5h[2:1],
{2},1-4[1:1]/5-8[1:1],{1},
{2},3b/7b,
{4},2b/6b,,,
{4}1b/5b,,1,1,
{4}1,,8,8,
{4}8,,2,2,
{4}2,,7,7,
{4}7,,4,4,
{4}4,,5,5,
{4}5,,3,3,
{4}3,,6,6,
{4}6b,,2,2,
{4}1,,7,7,
{4}8,,1,1,
{4}2,,8,8,
{4}7,,6,6,
{4}5,,3,3,
{4}4,,5,5,
{4}6,,4,4,
{4}3b,,1,1,
{4}1,1,2,2,
{4}2,,8,8,
{4}8,8,7,7,
{4}7,,5,5,
{4}5,5,6,6,
{4}6,,4,4,
{4}4,4,3,3,
{4}3b,,1,1,
{4}2,2,3,3,
{4}4,,8,8,
{4}7,7,6,6,
{4}5,,4,4,
{4}3,3,2,2,
{4}1,,5,5,
{4}6,6,7,7,
{4}8,8,{2}8<1[4:5],{1},
{2},2/8,
{4}1/7,,1/8,1/8,
{4}1b/8b,,1,2,
{4}3,,8,7,
{4}6,,4,3,
{4}2,,5,6,
{4}7,,1/8,1/8,
{4}1/8,,1,1,
{4}1,1b,8,8,
{4}8,,2/7,2/7,
{4}2/7,,1,8,
{4}2,7,3,6,
{4}4,5,4b/5b,
E

EXPERT

(246.0){1},
{4},5,,5,
{4},5,,5,
{4},4,,4,
{12},,,4,,,,,,4,,3/5,
{12},,,,,,,,,5,,4/6,
{12},,,,,,,,,4,,3/5,
{12},,,5,,{995}4/6,,,,,,,,,,,,,,,,,,,,,,,,,,,,,,,,,,,,,,,,,,,,,,,,,,,,,,,,,,,,,,,,,,,,,,,,,,,,,,,,,,,,,,,,,,,,,,,,,,,,,,,,,,,,,,,,,,,,,,,,,,,,,,,,,,,,,,,,,,,,,,,,,,,,,,,,,,,,,,,,,,,,,,,,,,,,,,,,,,,,,,,,,,,,,,,,,,,,,,,,,,,,,,,,,,,,,,,,,,,,,,,,,,,,,,,,,,,,,,,,,,,,,,,,,,,,,,,,,,,,,,,,,,,,,,,,,,,,,,,,,,,,,,,,,,,,,,,,,,,,,,,,,,,,,,,,,,,,,,,,,,,,,,,,,,,,,,,,,,,,,,,,,,,,,,,,,,,,,,,,,,,,,,,,,,,,,,,,,,,,,,,,,,,,,,,,,,,,,,,,,,,,,,,,,,,,,,,,,,,,,,,,,,,,,,,,,,,,,,,,,,,,,,,,,,,,,,,,{24}1/8,,,
{12},1/8,,1/8,,2b/7b,,,,,,5/7,
{12},,3,4,,4,3,,,4/5,,4/5,
{12},,6,5,,5,6,,,4/5,,4/5,
{12},,3,4,,4,,,6,5,,5,
{12},,3,4,,4,3,,,4/5,,4/5,
{12},,6,5,,5,6,,,4/5,,4/5,
{12},,3,4,,4,3,,,4/5,,4/5,
{12},,2,1,,3/8,,,7,8,,1b/6b,
{12},,,,,,,,,,,2/4,
{12},,6,5,,5,6,,,4/5,,5/6,
{12},,3,4,,4,3,,,4/5,,3/4,
{12},,6,5,,5,,,3,4,,4,
{12},,6,5,,5,6,,,4/5,,5/6,
{12},,3,4,,4,3,,,4/5,,5/6,
{12},,6,5,,5,6,,,4/5,,3/4,
{12},,7,8,,1/6,,,2,1,,3b/8b,
{4},6,5,2/4,
{4}3,4,5,4/6,
{2}3b/5b,4h[2:1],
{4}3,3h[4:3],,,
{2}2h[2:1],1h[2:1],
{4}5h[2:1],,6,6h[2:1],
{4},7h[2:1],,8,
{4}1,2/7,6,4/5,
{4}3/6,7,5,4,
{4}1/2,6,7/8,3,
{4}4/5,1/8,2/7,6,
{4}8,1,{2}3q5[4:3],{1},
{4}8,2h[4:3],,7h[4:1],
{12},,,,,1h[1253:261]/6h[1253:261],,,,4h[4:1]/7h[4:1],,,
{12},,2h[1253:261]/5h[1253:261],,,,3h[4:1]/8h[4:1],,,,,2b/7b,{1},
{4}7h[4:1],6h[4:1],5h[4:1],1h[4:1],
{4}2h[4:1],3h[4:1],4h[4:1],8b,{1},
{8}6,5,,3,4,,6,5,
{8},3,4,,6,5,,7,
{8}8,,2,1,,3,4,,
{1}6-2[2:1],
{8}3,4,,6,5,,3,4,
{8},6,5,,7,8,,2,
{8}1,,3,4,,6,{4}5p4[4:3],{1},
{8},,,,,,8,1,
{8},1,2,,2,3,,3,
{8}4,,4,5,,5,6,,
{8}6,7,,7,8q1[4:3],,,,
{8},,,,,,1,8,
{8},8,7,,7,6,,6,
{8}5,,5,4,,4,3,,
{8}3,2,,2,1,,1,8,
{8},8,1,,6,5,6,5,
{8}6,,3,4,3,4,3,,
{8}7,8,7,8,7,,2,1,
{8}2,1,2q3[4:3],,,,,,
{8},,,,3,4,3,4,
{8}3,,6,5,6,5,6,,
{8}2,1,2,1,2,,7,8,
{8}7,8,7p6[4:3],,,,,,
{8},,,,6,5,7,4,
{8}8,,3,4,2,5,1,,
{8}7,8,6,1,5,,2,1,
{8}3,8,4,,5,4,6,3,
{8}7,2,8,1,{2}8<1[4:3],{1},
{12},,,,,,2/7,,2/7,,,5/6,
{12},,,2/7,,2/7,,,3/4,,,,
{12}2b/6b,,,,,3h[3:1],,,,8h[4:1],,,
{4}7h[4:1],6h[4:1],5h[4:1],6h[4:1],
{4}7h[4:1],8h[4:1],1h[4:1],2h[4:1],
{12}3h[4:1],,,4,,,5/7,,6,5,,,
{12}2/4,,3,4,,2/4,,,,1h[4:1],,,
{4}2h[4:1],3h[4:1],4h[4:1],3h[4:1],
{4}2h[4:1],1h[4:1],8h[4:1],7h[4:1],
{12}6h[4:1],,,5,,,2/4,,3,4,,,
{12}5/7,,6,5,,5/7,,,,2h[4:1],,,
{4}1h[4:1],8h[4:1],7h[4:1],6h[4:1],
{4}7h[4:1],8h[4:1],1h[4:1],2h[4:1],
{12}3h[4:1],,,4,,,4/7,,6,5,,,
{12}2/5,,3,4,,2/4,,,,7h[4:1],,,
{4}8h[4:1],1h[4:1],2h[4:1],3h[4:1],
{1}4q5[2:1],
{1}7<8[4:3],
{12},,,,,2h[3:1],,,,4,,,
{12}6,,6,5,,,3,,3,4,,,
{12}6,,6,5,,,3,,3,4,,,
{12}2,,2,1,,,7,,7,8,,,
{12}2,,2,1,,3/8,,,,5/6,,,
{12}3,,3,4,,,6,,6,5,,,
{12}3,,3,4,,,6,,6,5,,,
{12}7,,7,8,,,2,,2,1,,,
{12}7,,7,8,,1/6,,,,3/4,,,
{12}6,,6,5,,,3,,3,4,,,
{12}2,,2,4,,,7,,7,5,,,
{12}7,,7,8,,,2,,2,1,,,
{12}6,,6,5,,4/7,,,,3/4,,,
{4}7,5/6,2,3/4,
{4}6,5/7,3,2/4,
{12}7,,7,8,,,2,,2,1,,,
{12}1/8,,1/8,,,2/7,,,1,8,,8,
{12}7,,7,6,,6,5,,5,4,,4,
{12}3,,3,2,,2,1h[1999:833],,,,,3h[3:1],
{4},5h[4:1],7<8[8:3],,
{12},,,,,5/7,,,2,4,,4,
{12}2,,,4/5,,3/4,,,7,5,,5,
{12}7,,,4/5,,5/6,,,2,4,,3/5,
{12},,7,5,,4/6,,,2,4,,7,
{12}5,,,4/5,,3/4,,,7,5,,5,
{12}7,,,4/5,,3/4,,,2,4,,4,
{12}2,,,4/5,,3/6,,,,3/4,,2/5,
{12},,,7/8,,1/6,,,,1/2,,3b/8b,
{12},,,4/5,,3b/6b,,,,1/8,,2b/7b,
{12},,,5b/6b,,4b/7b,,,,3b/4b,,2b/5b,
{12},,,1b/8b,,3b/6b,
E

MASTER

(246)
{4}   3h[1:2],4,,4,
    ,4,,4,
    6h[4:5],5,,5,
{12}  ,,,5,,,,,3,4,,2b/5b,
    ,,,,,,,,6,5,,4b/7b,
    ,,,,,,,,2,3,,1b/4b,
    ,,7,6,,8b/5b,,,4,5,,1,
    8,1,8,1,8,1,2b/7b,,,,,1/6,

    ,,7,8,7,6,5,,,1/2,,8/3,
    ,,2,1,2,3,4,,,5/6,,4/7,
    ,,2,3,,1/4,,,7,6,,5/8,
    ,,4,3,4,5,6,,,1/2,,3/8,
    ,,2,1,2,3,4,,,7/8,,6/1,
    ,,7,8,7,6,5,,,3/4,,2b/5b,
    ,,7,6,,5b/8b,,,2,3,,1b/4b,
    ,,3,4,,4,5,,5,6,,4b/7b,

    ,,6,5,6,7,8,,,3/4,,2/5,
    ,,3,4,3,2,1,,,7/8,,1/6,
    ,,2,3,,1/5,,,7,6,,4/8,
    ,,5,6,5,4,3,,,3/4,,2/5,
    ,,3,4,3,2,1,,,5/6,,4/7,
    ,,6,5,6,7,8,,,1/2,,3b/8b,
    ,,7,6,,4b/8b,,,2,3,,1b/5b,
    ,,3,4,,6,5,,2,4,,7,
    5,,2,5,,7,4,,1,4,,8,
    1b/7b,,,,,,

    2,1,2,1,2,1,
    4,7,4,7,
    3,8,3,8,3,8,3,8,
    5,6,5,6,5,6,
    3,4,3,4,3,4,
    1,6,1,6,1,6,
    2,5,2,5,
    8,7,8,7,8,7,
    2,1,2,1,2,

    3b/8b,,,5b/6b,,,4b/7b,,,1b/6b,,,
    5,4,3,2,,,5/6,,6,5,,3,
    4,5,6,7,,,3/4,,,1/7,,1/7,
    ,,5/6,,,7,8,,,3/4,,,2/8,
    ,2/8,,,,4/5,,,6,,,
    4,3,2,1,8,7,6<3[4:1],5,4,,,,,
    ,,1b/8b,,,4h[4:1]/5h[4:1],,,,,,2b/7b,,
    ,,,,,,3^8[8:1],,,,5^2[8:1],,,,,
    7^4[8:1],,,,1^6[8:1],,,,,3,,
    ,6,5,,5,4,,4,3,,3,
    4,5,6,5,,5,6,,6,7,,,
    8,7,6,5,,3,4,,4,
    2b/5b,,,

{1}   ,

{8}   3,4,3,6,5,6,2,3,2,7,6,7,1,8,2,7,
    2,3,2,7,6,7,1,1,
{12}   8,7,6, {8}5,4h[4:1],,3h[8:1],2b,,

{8}   6,5,6,3,4,3,7,6,7,2,3,2,
    8,1,7,2,7,6,7,2,3,2,
{12}  6h[6:1],,5h[6:1],,4h[6:1],,
{2}   3b,,,

{8}   6,5,6,2,1,2,7,8,7,3,4,3,
    5,4,6,3,7,8,7,3,4,3,8,8,
{12}   1,2,3,   {8}4,5h[4:1],,7h[8:1],1b,,

{8}   3,4,3,7,8,7,2,1,2,6,5,6,4,5,3,6,
    2,1,2,6,5,6,3,4,3,6,5,6,5,6,

    2,4,2,7,5,7,3,1,3,6,8,6,4,5,2,7,
    2,4,2,7,5,7,1,1,
{12}   8,7,6,   {8}5,4h[4:1],,2h[8:1],8b,,

{8}   7,5,7,2,4,2,8,5,8,1,4,1,8,1,6,3,
    5,8,5,4,1,4,8,8,
{12}   1,2,3,   {8}4,5h[4:1],,7h[8:1],1b,,

{8}   2,4,2,7,5,7,1,5,1,8,4,8,4,5,2,7,
    3,4,2,5,1,7,8,6,1,5,2,4,3,6,1,7,
{1}   8<1[4:5],,

{12}   2b/7b,,2b/7b,,,6,8,,8,6,,2b/7b,
    ,,3,1,,1,2b/8b,,,,,2b/7b,

    ,,1,8,,8,2-5[8:1],,2,7-4[8:1],,7,
    1-5[8:1],,1,8-4[8:1],,8,3-1[8:1],,3,7-5[8:1],,7,
    4-8[8:1],,4,6-2[8:1],,6,3-5[8:1],,3,7-1[8:1],,7,
    2-5[8:1],,2,1-6[8:1],,1,3,,3,4,,2b/5b,
    ,,7,8-4[8:1],,8,7-5[8:1],,7,1-3[8:1],,1,
    8-6[8:1],,8,2-4[8:1],,2,1-5[8:1],,1,4-8[8:1],,4,
    5-7[8:1],,5,3-1[8:1],,3,8-4[8:1],,8,1-5[8:1],,1,
    7,,7,8,,,2,,2,1,,3b/8b,
    ,,1,8-5[8:1],,8,1-4[8:1],,1,7-3[8:1],,7,
    2-6[8:1],,2,8-4[8:1],,8,1-5[8:1],,1,7-2[8:1],,7,
    3-6[8:1],,3,7-4[8:1],,7,2-5[8:1],,2,6-1[8:1],,6,
    3-8[8:1],,3,7-4[8:1],,7,2,,2,1,,2b/8b,
    ,,3,4-6[8:1],,4,3-7[8:1],,3,8-2[8:1],,8,
    4-6[8:1],,4,7-3[8:1],,7,2-8[8:1],,2,6-4[8:1],,6,
    2,,2,1,,1,8,,8,7,,7<8[2:1],
    ,,,,,,,,,,,2b/7b,

    ,,,1b/8b,,,8^5[8:1],,8,2q6[8:1],,2,
    8^5[8:1],,8,2q6[8:1],,2,7p3[8:1],,7,1^4[8:1],,1,
    7p3[8:1],,7,1^4[8:1],,1,8^5[8:1],,8,2q6[8:1],,2,
    8^5[8:1],,8,2q6[8:1],,2,7,,7,8,,2b/6b,
    ,,,8b/4b,,,5^8[8:1],,5,3p7[8:1],,3,
    5^8[8:1],,5,3p7[8:1],,3,5^8[8:1],,5,3,,,
    1,2,3,8,7,6,2,3,4,7,6,5,
    1,2,3,7,6,5,3b/4b,,,5/6,,4b/7b,
    ,,,4/5,,,1^4[8:1],,1,7p3[8:1],,7,
    1^4[8:1],,1,7p3[8:1],,7,2q6[8:1],,2,8^5[8:1],,8,
    2q6[8:1],,2,8^5[8:1],,8,1^4[8:1],,1,7p3[8:1],,7,
    1^4[8:1],,1,7p3[8:1],,7,2,,2,1,,3b/7b,
    ,,,4/6,,,4^1[8:1],,4,6q2[8:1],,6,
    4^1[8:1],,4,6q2[8:1],,6,3p7[8:1],,3,5^8[8:1],,5,
    3p7[8:1],,3,5^8[8:1],,5,3,,3,4,,4,
    5,,5,6,,6,7,,7,,,6b/8b,
    ,,8,1-5[8:1],,1b,2-6[8:1],,2b,3-7[8:1],,3b,
    4-8[8:1],,4b,5-1[8:1],,5b,6-2[8:1],,6b,7-3[8:1],,7b,
    8h[12:5],,,,,6h[3:1],,,,4>5[2:1],,,

    ,,,,,,,,,,,1/6,
    ,,7,6,5,4,5,,,3/4,,3/8,
    ,,2,3,4,5,4,,,4/5,,3b/6b,
    ,,7,5,,4b/6b,,,2,4,,3b/5b,
    ,,4,5,4,5,4,,,5/6,,2/5,
    ,,3,2,1,8,1,,,3/4,,4/7,
    ,,6,7,8,1,8,,2-5[8:1],1,,2b,
    ,,7-4[8:1],8,,7b,,,2^7[8:1],1,,2b,
    ,,6q2[8:1],5,,6b,,,3^6[8:1],4,,3b,
    ,,7^2[8:1],8,,7b,,,3p7[8:1],4,,3b,
    ,,6^3[8:1],5,,6b,,,1-5[8:1],8,,1b,
{1}    ,,,,,
E
  • [Mas]備考になります。中盤8分と12分が入り混じるところですが12分の3つに続く形で8分を書きました。見る人によっては気持ち悪いかもしれませんが、ご理解ください。 -- ろこ (2015-02-19 05:06:05)
名前:
コメント:

タグ:

+ タグ編集
  • タグ:

このサイトはreCAPTCHAによって保護されており、Googleの プライバシーポリシー利用規約 が適用されます。

最終更新:2022年08月19日 13:44