AL作戦 > MI作戦(創作譜面:mai-Star)

曲名 AL作戦/MI作戦
制作者名 mai-Star
音源 ---
譜面動画
: nicovideoエラー ( 正しい動画URLを入力してください. )
制作者コメント maimai四天王その1
BPM EASY BASIC ADVANCED EXPERT MASTER
170 - - - 10 12

EASY


BASIC


ADVANCED


EXPERT

&inote_4=
(170.19){8}
4,,5,,,3,,,
2,,5,,,2,,,
1,,2,,,2,,,
5,,4,,,2,,,

2,,4,,,2,,,
1,,5,,,3,,,
2b/3,,,,4b/5,,,,
(169.85)
7p5[10:4],,,,,,,,

(170.03)
4,,5,,6,7,8,,
1,,2,,3,4,5,,
1,,3,,4,5,6,,
2,,4,,7,6,5,,

4,,5,,6,7,8,,
1,,2,,3,4,5,,
1,,3,,4,5,6,,
2h[8:2]/7h[8:4],,,,,,2b/7b,,

(170)
3,,4,,5,6h[8:1],,7,
2,,1,,3,6h[8:1],,7,

3,,4,,5,8h[8:1],,7,
2,,1,,3,8h[8:1],,7,

3,,4,,5,2h[8:1],,4,
2,,1,,3,4h[8:1],,4,
(170.18)
1b,,,,2b,,,,
1,,3,,5,6,7b,,

3,,4,,5,6h[8:1],,7,
2,,1,,3,6h[8:1],,7,

3,,4,,5,8h[8:1],,7,
2,,1,,3,8h[8:1],,7,

3b,,,,5b,,,,
1b,,,,7b,,,,
1,,2,,3,,4,,
2b,,6v7[11:3],,,,,,
6z2[11:4],,,,,,,,
1s5[11:4],,,,,,,,

(170)
4,4,4,,5,5,5,,
3,3,3,,2,2,2b,,

1,1,1,,6,6,6,,
8q1[12:4],,,,,,,,

4,4,45,,5,5,56,,
3,3,34,,2,2,2b,,

1,1,12,,6,6,65,,
5p4[12:4],,,,,,,,

4,5,4,5,4,5,4,5,
1,2,3,4,8-5[10:2]/1-4[10:2],,,,

1,8,1,8,2,7,2,7,
1,2,3,4,8p4[10:2]/4p8[10:2],,,,

1b,,,,2b,,,,
3b,,,,4b,,,,
5b,,,,6b,,,,
6>6[10:3],,,,,,,,

(169)
1,,2,,57,68,,,
3,,4,,45,21,,,
5,,6,,24,68,,,
1,,3,,85,5p4[12:45]/4>5[12:45],,,

(250)
,,,,,,
,,,,,,
,,,,,,
,,,,,,
,,,,,,
,,,,,,
,,,,,,
,,,,,,
1b,,,,,,
,,,,,,
5b,,,,,,
,,,,,,
7b,,,,,,
,,,,,,
3b,,,,,,
,,,,,,
1b,,,,,,
,,,,,,
4b,,,,,,
,,,,,,
7b,,,,,,
,,,,,,
5p3[13:10],,,,,,
(246)
,,,,,,

(244.78)
1,,,2,,,
3,,,2,,,
4,,6,,5,,
7p2[8:3],,,,,,
(245.85)
1,,,2,,,
3,,,2,,,
4,,4,,5,,
(249)
6q3[8:3],,,,,,
(250)
1,,,2,,,
3,,,2,,,
4,,6,,5,,
5p3[8:3],,,,,,

(250.5)
1,,2,,3,,
1,,2,,3,,
3,,2,,1,,
1-5[9:2],,,,,,


1,,2,,3,,
1,,2,,3,,
3,,2,,1,,
8-4[9:2],,,,,,

(250.4)
1,,,2,,,
2,,,6,,,
1,2,3,4,5,,
1,,4,,7,,

5,,,6,,,
2,,,3,,,
1,2,3,4,5,,
5b,,,,,,

1,,,3,,,
2,,,5,,,
1,2,3,4,5,,
1,,4,,7,,

5,,,6,,,
2,,,8,,,
1,2,3,4,5,,
5p4[10:3],,,,,,

(250)
1h[8:2],,3,,3,,
4h[8:2],,7,,7,,
7h[8:2],,1,,1,,
2q5[9:2],,,,,,

1h[8:2],,3,,3,,
4h[8:2],,7,,7,,
7h[8:2],,1,,1,,
2q4[9:2],,,,,,

(250.03)
1h[8:2],,3,,3,,
4h[8:2],,7,,7,,
7h[8:2],,1,,1,,
2q8[9:2],,,,,,

1h[8:2],,3,,3,,
4h[8:2],,7,,7,,
7h[8:2],,1,,1,,
1q3[9:2],,,,,,

{4}
13,24,13,
24,14,13,

13,24,13,
24,14,13,

85,56,76,
75,86,76,
68,86,76,
8b/5,6b/7,7b/8,

13,24,13,
24,14,13,

13,24,13,
24,14,13,

85,56,76,
75,86,76,
68,86,76,
8b/5,6b/7,7b/8,

13,24,13,
24,14,13,

13,24,13,
24,14,13,

85,56,76,
75,86,76,
68,86,76,
8b/5,6b/7,7b/8,


7v5[6:2]/2v4[6:2],,,
8v6[6:2]/1v3[6:2],,,
7v5[6:2]/2v8[6:2],,,
7v4[6:2]/8v3[6:2],,,

7v5[6:2]/2v4[6:2],,,
8v6[6:2]/1v3[6:2],,,
7v5[6:2]/2v8[6:2],,,
7v3[6:2]/1v5[6:2],,,

1h[4:1],3h[4:1],,
5h[4:1],7h[4:1],,

2h[4:1],4h[4:1],,
6h[4:1],8h[4:1],,

1h[4:1],3h[4:1],,
5h[4:1],7h[4:1],,

2h[4:1],4h[4:1],,
6h[4:1],8h[4:1],8b,

1h[4:1],3h[4:1],,
5h[4:1],7h[4:1],,

2h[4:1],4h[4:1],,
6h[4:1],8h[4:1],,

1h[4:1],3h[4:1],,
5h[4:1],7h[4:1],,

2h[4:1],4h[4:1],,
6h[4:1],8b,
4q5[10:5],,,,
,,,,
,,,,
,,,,
,,,,,,,

MASTER

(170.24){8}
1,1,1,2,,2,4,,
3,3,3,4,,5,6,,
1,2,1,2,,3,4,,
1,3,5,7,,8,1b,,

1h[8:7],2,3,4,5,6,7,8,
1h[8:7],2,3,4,5,6,7,8,
1h[8:7],2,3,4,5,6,7,8,
1h[8:6]/5h[8:6],,,,,,,,

{16}
4,,6,2,,4,1,,5,,2,4,,8,68,,
3,,1,2,,1,2,,4,5,4,2,,8,78,,
5,,6,2,,4,1,,5,,2,4,,8,68,,
1,7,1,2,,1,2,,4,5,4,2,,8,78,,

4,,6,2,,4,1,,5,,2,4,,8,68,,
3,,1,2,,1,2,,4,5,4,2,,8,78,,
5,,6,2,,4,1,,5,,2,4,,8,68,,
{12}
15,26,37,15,26,37,37,26,15,4b/8b,,,

{16}
1,,3,,5,,7,,8,6,7,,4,2,3,,
2,,4,,6,,8,,2,4,8,,1,5,3,,
2,,6,,4,,8,,8,1,8,,5,6,7,,
1,2,1,,3,4,3,,5,4,6,,8,7,6,,

1,,3,,5,,7,,8,6,7,,4,2,3,,
2,,4,,6,,8,,2,4,8,,1,5,3,,
2b,,6,,4,,8,,8b,1,8,,5,6,7,,
1b,2,1,,3b,4,3,,5b,4,6,,7b,7,7,,

1,,3,,5,,7,,8,6,7,,4,2,3,,
2,,4,,6,,8,,2,4,8,,1,5,3,,
2,,6,,4,,8,,8,1,8,,5,6,7,,
1,2,1,,3,4,3,,5,4,6,,8,7,6,,

1,,2,,3,,4,,5p3[13:3],,,,,,,,
2,,8,,6,,4,,5p3[13:3],,,,,,,,
1h[16:12]/4h[16:12],,,,,,,,
,,,,,,,,
7h[16:12]/4h[16:12],,,,,,,,
,,,,,,,,
(169)
1,,2,,3,,4,,5,,6,,7,,8,,
1,2,3,4,5,6,7,8,1,2,3,4,5,6,7,8,

(169.44)
1,,3,,5,,7,,7,5,,5,7,,4,,
3,,5,,6,,8,,2,4,,6,8,,2,,
1,,3,,5,,7,,7,5,,5,7,,4,,
3,,5,,6,,8,,2,4,,6,8,,2,,
(169.79)
1,,3,,5,,7,,7,5,,5,7,,4,,
3,,5,,6,,8,,2,4,,6,8,,2,,
1,,3,,5,,7,,7,5,,5,7,,4,,
3,,5,,6,,8,,2,4,1,6,8,8,2,,
(170)
1,4,3,,5,,7,,7,5,,5,7,,4,,
3,4,5,,6,,8,,2,4,,6,8,,2,,
1,4,3,,5,,7,,7,5,,5,7,,4,,
3,4,5,,6,,8,,2,4,1,6,8,8,2,,

(170.14)
8,4,3,,5,,7,,7,5,,5,7,,4,,
34,4,5,,6,,8,,2,4,,6,8,,2,,
12,4,3,,5,,7,,7,5,,5,7,,4,,
36,4,5,,6,,8,,2,4,1,6,8,8,2,,

(169){8}
1,2,3,4,5,6,7,8,
1,2,3,4,7^2[5:2]/4v5[5:2],,,,

1,2,3,4,5,6,7,8,
1,2,3,4,6<3[6:2]/4v5[6:2],,,,

(124){8}
1,2,3,1,2,3,3,2,1,4,5,6,
4,5,6,2,4,5,2,3,4,21,34,78,

1,2,3,1,2,3,3,2,1,4,5,6,
4,5,6,2,4,5,2,3,4,21,34,78,

1,2,3,1,2,3,3,2,1,4,5,6,
4,5,6,2,4,5,2,3,4,
(123.85)
21,34,8b/1b,
(125.3)
8,8h[8:1],,
6,6h[8:1],,
4,4h[8:1],,
5p2[6:1],,,

4,8v1[5:1],,
8,6v7[5:1],,
2,4v5[5:1],,
5p3[6:1],,,

1,2,3,
3,2,1,
5,6,7,
1q2[6:1],,,

1,2,3,4,5,6,
1,2,3,4,5,6,
4,5,6,7,8,1,
1,2,3,4,5,6,
(125.65){16}
1,,2,8,3,,4,7,5,,6,,
1,,2,8,3,,4,7,5,,6,,
1,,2,8,3,,4,7,5,,6,,
1,,2,8,3,,4,7,5,,6,,
1,,2,8,3,,4,7,5,,6,,
1,,2,8,3,,4,7,5,,6,,
1,,2,8,3,,4,7,5,,6,,
1,,2,8,3,,4,7,5,,6,,

(125)
1,,2,,3,,4,,5,,6,,
1,1,2,4,3,,4,,5,,6,,
1,,2,,3,,4,6,5,8,7,2,
1,1,2,3,4,,5,,6,,7,,

1,,2,,3,,4,,5,,6,,
1,1,2,4,3,,4,,5,,6,,
1,,2,,3,,4,6,5,8,7,2,
1,1,2,3,4,,5,,6,,7,,

(124.95){8}
1^4[6:1],4^7[6:1],7^1[6:1],
1^4[6:1],4^7[6:1],7^1[6:1],
1^4[6:1],4^7[6:1],7^1[6:1],
1>6[6:1],,,

1^4[6:1],4^7[6:1],7^1[6:1],
1^4[6:1],4^7[6:1],7^1[6:1],
1^4[6:1],4^7[6:1],7^1[6:1],
1s5[6:1],,,

1^4[6:1],4^7[6:1],7^1[6:1],
1^4[6:1],4^7[6:1],7^1[6:1],
1^4[6:1],4^7[6:1],7^1[6:1],
1>8[7:1],,,

1^4[6:1],4^7[6:1],7^1[6:1],
1^4[6:1],4^7[6:1],7^1[6:1],
1^4[6:1],4^7[6:1],7^1[6:1],
1>8[7:1],,,

8>4[7:1],,,
4q5[7:1],,,
1<5[7:1],,,
5p4[6:1],,,
4q5[10:3],,,
,,,

(126){16}
1,2,3,4,5,6,
{24}
8,1,2,3,4,
5,6b,,,,

{8}
8>4[7:1],,,
4p6[7:1],,,
1<5[7:1],,,
5v3[6:1],,,
8>4[7:1],,,
4p6[7:1],,,
1<5[7:1],,,
5v2[6:1],,,

(125)
8>4[7:1],,,
4q5[7:1],,,
1<5[7:1],,,
5p4[6:1],,,
8>4[7:1],,,
4q5[7:1],,,
1<5[7:1],,,
5p4[6:1],,,
8>4[7:1],,,
4q5[7:1],,,
1<5[7:1],,,
5p4[6:1],,,
8>4[7:1],,,
4q5[7:1],,,
1<5[7:1],,,
5p4[6:5]/4>5[6:5],,,
,,,
,,,
,,,
,,,
,,,







,,,,,,,,,,,,,,


##comment
↑「#」を一個消して、コピーする。



名前:
コメント:

タグ:

+ タグ編集
  • タグ:

このサイトはreCAPTCHAによって保護されており、Googleの プライバシーポリシー利用規約 が適用されます。

最終更新:2015年02月19日 23:17