迎撃!トラック泊地強襲(創作譜面:mai-Star)

曲名 迎撃!トラック泊地強襲(けいげきとらっくはくちきょうしゅう)
制作者名 mai-Star
音源 ---
譜面動画
: nicovideoエラー ( 正しい動画URLを入力してください. )
制作者コメント maimai四天王その2。なめてかかるとやばいぜ
BPM EASY BASIC ADVANCED EXPERT MASTER
155 - - - 11 12

EASY


BASIC


ADVANCED


EXPERT

(103.85){12}
1,2,3,1,2,3,1,2,3,5b,6b,7b,
1,2,3,1,2,3,1,2,3,5b,3b,7b,
1,2,3,1,2,3,1,2,3,5b,4b,7b,
1b,,,,,
(155){4}
1s5[8:4],,,,
{12}
,,,,,,,,,,,
{12}
1,,,3,3,3,4,,,4,5,6,
2b,,,3h[12:6],,,,,,,,,

(156){8}
1,1,2,2,1,1,2,2,
1,2,3,4,3,4,5,6,

(155)
5,6,4,3,5,6,4,3,
4,6,3,5,5,6,3,4,

1,2,2,1,7,8,7,8,
1,2,1,2,8,7,7,8,

5,5,4,4,3,3,6,6,
1,1,8,8,7,7,2,2,

4,4,5,5,6,6,8,8,
3p2[10:2],,,,6q7[10:2],,,,

5,6,4,3,5,6,4,3,
4,6,3,5,5,6,3,4,

1,2,2,1,7,8,7,8,
1,2,1,2,8,7,7,8,

5,5,4,4,3,3,6,6,
1,1,8,8,7,7,2,2,

4h[8:1],,5h[8:1],,6h[8:1],,7h[8:1],,
3q5[10:4],,,,,,,,

(155.15){16}
6,,2,,4,,8,,1,5,1,,1,,35,,
2,,6,,4,,8,,1,5,1,,3,,17,,
6,,2,,4,,8,,1,5,1,,1,,35,,
2,,6,,4,,8,,1,5,1,,3,,1b,,

6,,2,,4,,8,,1,5,1,,1,,35,,
2,,6,,4,,8,,1,5,1,,3,,17,,
6,,2,,4,,8,,1,5,1,,1,,35,,
2,,6,,4,,8,,1,5,1,,3,,1b,,

6,,2,,4,,8,,1,5,1,,1,,35,,
2,,6,,4,,8,,1,5,1,,3,,17,,
6,,2,,4,,8,,1,5,1,,1,,35,,
2,,6,,4,,8,,1,5,1,,3,,1b,,

6,,2,,4,,8,,1,5,1,,1,,35,,
2,,6,,4,,8,,1,5,1,,3,,17,,
6,,2,,4,,8,,1,5,1,,1,,35,,
2,,6,,4,,8,,1,5,1,,3,,1b,,

(154.95){8}
1,,2,,3,,4,,
4b,,2b,,,,6b,,
5,,6,,7,,8,,
8,,1,,,,4b,,
1,,2,,3,,4,,
4,,2,,,,6b,,
5,,6,,7,,8,,
8,,1,,,,4b,,
4,,6,,7,,8,,
8,,1,,,,4b,,
4,,2,,3,,4,,
4,,2,,,,6b,,
4,,6,,7,,8,,
8,,1,,,,4b,,

(175)
4,4,5,4,,4,4,,
3,3,5,4,,3,4,,
2,2,5,4,,2,2,,
1,2,2,3,,8,4,,

4,4,5,4,,4,4,,
3,3,5,4,,3,4,,
2,2,5,4,,2,2,,
1,2,2,3,,8,4,,

1,,2,,2,1,2,,
3,,4,,3,4,3,,
5,,6,,6,7,6,,
6,,7,,7,5,8,,
1,,2,,2,1,2,,
3,,4,,3,4,3,,
5,,6,,6,7,6,,
(174.5)
,,6b,,4b,,2b,,

(174.75)
5,5,5,54,8,8,8,81,
1,2,3,4,5,6,7,8,

5,5,5,54,8,8,8,81,
1,2,3,4,5,6,7,8,

5,5,5,54,8,8,8,81,
1,2,3,4,5,6,7,8,

5,5,5,54,8,8,8,81,
1,2,3,4,5b,6b,7b,8b,


4,5,3,6,2,7,1,8,
1,8,2,7,3,5,4,6,
4,5,3,6,2,7,1,8,
1,8,2,7,3,5,4,6,
4,5,3,6,2,7,1,8,
1,8,2,7,3,5,4,6,
4,5,3,6,2,7,1,8,
1,8,2,7,3,5,4,6,

(175.15){4}
5,46,3,27,
2,27,3,27,
4,27,1,18,
1,5,4,3b,
5,46,3,27,
2,27,3,27,
4,27,1,18,
1,5,4,3,
(175){8}
1,,3,,2,4,5,,
4,,5,,2,4,8,,
1,,6,,2,4,8,,
7,,5,,2,4,3,,

3,,5,,1,4,5,,
2,,4,,2,5,4,,
1,,3,,6,2,4,,
8b,8b,8b,8b,8b,8b,8b,8b,


1,,3,,2,4,5,,
4,,5,,2,4,8,,
1b,,,,2b,,,,
3b,,5b,,7b,,1b,,

3,,5,,1,4,5,,
2,,4,,2,5,4,,
1,,3,,6,2,4,,
1b,,,,2b,,,,

1,,3,,5,,7,,
7,,4,,6,,8,,
8b,8b,8b,8b,8b,8b,8b,8b,
1b,1b,1b,1b,1b,1b,1b,1b,

1,2,1,2,3,4,3,4,
5,6,5,6,7,8,7,8,


1,2,1,2,3,4,3,4,
5,6,5,6,7,8,7,8,


1,2,1,2,3,4,3,4,
5,6,5,6,7,8,7,8,


1,2,1,2,3,4,3,4,
5,6,5,6,7,8,7,8,

1,2,1,2,3,4,3,4,
5,6,5,6,7,8,7,8,


1,2,1,2,3,4,3,4,
5,6,5,6,7,8,7,8,


1,2,1,2,3,4,3,4,
5,6,5,6,7,8,7,8,


1,2,1,2,3,4,3,43,
5,6,5,6,7,87,7,87,
{4}
1h[4:4],,,,
3h[4:4],,,,
5h[4:4],,,,
7h[4:4],,,,
1h[4:4],,,,
3h[4:4],,,,
5h[4:4],,,,
{8}
7b,8b/1b,7b,8b/2b,7b,8b/3b,7b,8b/4b,
{2}
,,,,
,,,,
,,,,

MASTER

&inote_5=
(103.85){12}
1,2,3,1,2,3,1,2,3,5b,6b,7b,
1,2,3,1,2,3,1,2,3,5b,3b,7b,
1,2,3,1,2,3,1,2,3,5b,4b,7b,
1b,,,,,
(155){4}
1s5[8:4],,,,
{12}
,,,,,,,,,,,
{12}
1h[12:3],,,3,3,3,4h[12:3],,,4,5,6,
2b,,,3h[12:6],,,,,,,,,

(156){8}
1,1,2,2,1,1,2,2,
1,2,3,4,31,48,51,62,

(155)
{16}
6,,2,,4,,8,,1,5,1,,1,,35,,
3,,5,,7,,1,,2,4,6,,3,,24,,
2,,6,,4,,8,,1,5,1,,3,,17,,
6,,2,,4,,8,,1,5,1,,1,,35,,


2,,6,,4,,8,,1,5,1,,3,,17,,
6,,2,,4,,8,,1,5,1,,1,,35,,

6,,2,,4,,8,,1,5,1,,1,,35,,
{8}
3p2[10:2],,,,6q7[10:2],,,,
{16}
1,,2,,1,,2,,3,,4,,3,,4,,
1,2,3,,5,6,7,,1,2,3,,4,5,6,,

1,,2,,1,,2,,3,,4,,3,,4,,
1,2,3,,5,6,7,,1,2,3,,4,5,6,,

1,,2,,1,,2,,3,,4,,3,,4,,
1,2,3,,5,6,7,,1,2,3,,4,5,6,,
1,,2,,1,,2,,1,2,3,4,5,6,7,8,
2q5[10:4],,,,,,,,
,,,,,,,,

(155.15){16}
6,,2,2,4,,8,,1,5,1,,1,,35,,
2,,6,6,4,,8,,1,5,1,,3,4,17,,
6,,2,2,4,,8,,1,5,1,,1,,35,,
2,,6,6,4,,8,,1,5,1,,3,2,1b,,

6,,2,2,4,,8,,1,5,1,,1,,35,,
2,,6,6,4,,8,,1,5,1,,3,5,17,,
6,,2,2,4,,8,,1,5,1,,1,,35,,
2,,6,4,4,,8,,1,5,1,,3,8,1b,,

6,8,2,,4,,8,,1,5,1,,1,,35,,
2,4,6,,4,,8,,1,5,1,,3,,17,,
6,4,2,,4,,8,,1,5,1,,1,,35,,
2,8,6,,4,,8,,1,5,1,,3b,,1,,

6,4,2,,4,,8,,1,5,1,,1,,35,,
2,8,6,,4,,8,,1,5,1,,3,,17,,
6,8,2,,4,,8,,1,5,1,,1,,35,,
2,4,6,,4,,8,,1,5,1,,3b,,1,,

(154.95){12}
1,,,2,3,4,5,,,6,7,8,
{8}
4b,,2b,,,,6b,,

{12}
1,,,2,3,4,5,,,6,7,8,
{8}
8,,1,,,,4b,,
{12}
1,,,2,3,4,5,,,6,7,8,
{8}
4,,2,,,,6b,,
{12}
1,,,2,3,4,5,,,6,7,8,
{8}
8,,1,,,,4b,,
{12}
1,,,2,3,4,5,,,6,7,8,
{8}
8,,1,,,,4b,,
{12}
1,,,2,3,4,5,,,6,7,8,
{8}
4,,2,,,,6b,,
{12}
1,,,2,3,4,5,,,6,7,8,
{8}
8,,1,,,,4b,,

(175)
4,4,5,4,2,4,4,7,
3,3,5,4,2,3,4,6,
2,2,5,4,2,2,2,2,
1,2,2,3,2,8,4,1,

4,4,5,4,2,4,4,7,
3,3,5,4,2,3,4,6,
2,2,5,4,2,2,2,2,
1,2,2,3,2,8,4,1,

1,,2,,2,1,2,1,
3,,4,,3,4,3,4,
5,,6,,6,7,6,2,
6,,7,,7,5,8,4,
1,,2,,2,1,2,2,
3,,4,,3,4,3,3,
5,,6,,6,7,6,3,
(174.5)
,,6b,,4b,,2b,,

(174.75){16}
1,2,1,2,3,4,3,4,5,6,5,6,7,8,7,8,
1,2,1,2,3,4,3,4,5,6,5,6,7,8,7,8,
1,2,1,2,3,4,3,4,5,6,5,6,7,8,7,8,
1,2,3,4,5,6,7,8,1,2,3,4,5b,,,,

1,2,1,2,3,4,3,4,5,6,5,6,7,8,7,8,
1,2,1,2,3,4,3,4,5,6,5,6,7,8,7,8,
1,2,1,2,3,4,3,4,5,6,5,6,7,8,7,8,
{8}
1,2,3,4,5b,6b,7b,8b,

{16}
1,2,1,2,3,4,3,4,5,6,5,6,7,8,7,8,
1,2,1,2,3,4,3,4,5,6,5,6,7,8,7,8,
1,2,1,2,3,4,3,4,5,6,5,6,7,8,7,8,
{8}
1,8,2,7,3,5,4,6,
{16}
1,2,1,2,3,4,3,4,5,6,5,6,7,8,7,8,
1,2,1,2,3,4,3,4,5,6,5,6,7,8,7,8,
1,2,1,2,3,4,3,4,5,6,5,6,7,8,7,8,
{8}
1,8,2,7,3,5,4,6,

(175.15){12}
1,1,1,2,2,2,3,3,3,4,4,4,
5,5,5,6,6,6,7,7,7,8,8,8,
1,1,1,2,2,2,3,3,3,4,4,4,
5,5,5,6,6,6,7,7,7,8,8,8,

1,1,1,2,2,2,3,3,3,4,4,4,
5,5,5,6,6,6,7,7,7,8,8,8,
1,1,1,2,2,2,3,3,3,4,4,4,
5,5,5,6,6,6,7,7,7,8,8,8,


(175){8}
1,2,3,,2,4,5,,
4,4,5,,2,4,8,,
1,2,6,,2,4,8,,
7,5,5,,2,4,3,,

3,2,5,,1,4,5,,
2,2,4,,2,5,4,,
1,2,3,,6,2,4,,
8b,8b,8b,8b,8b,8b,8b,8b,


8,8,8,8,8,8,8,8,
1,1,1,1,1,1,1,1,
{12}
1b,,,8,8,8,2b,,,7,7,7,
1b,,,8,8,8,2b,,,7,7,7,

{8}
3,,5,,1,4,5,,
2,,4,,2,5,4,,
{12}
1b,,,8,8,8,2b,,,7,7,7,
1b,,,8,8,8,2b,,,7,7,7,
{8}
1,2,3,,5,4,7,,
7,2,4,,6,5,8,,
8b,8b,8b,8b,8b,8b,8b,8b,
1b,1b,1b,1b,1b,1b,1b,1b,
{16}
1,2,1,2,3,4,3,4,
5,6,5,6,7,8,7,8,
1,2,1,2,3,4,3,4,
5,6,5,6,7,8,7,8,

1,2,1,2,3,4,3,4,
5,6,5,6,7,8,7,8,
1,2,1,2,3,4,3,4,
5,6,5,6,7,8,7,8,

1,2,1,2,3,4,3,4,
5,6,5,6,7,8,7,8,
1,2,1,2,3,4,3,4,
5,6,5,6,7,8,7,8,

1,2,1,2,3,4,3,4,
5,6,5,6,7,8,7,8,
1,2,1,2,3,4,3,4,
5,6,5,6,7,8,7,8,
1,2,1,2,3,4,3,4,
5,6,5,6,7,8,7,8,
1,2,1,2,3,4,3,4,
5,6,5,6,7,8,7,8,

1,2,1,2,3,4,3,4,
5,6,5,6,7,8,7,8,
1,2,1,2,3,4,3,4,
5,6,5,6,7,8,7,8,

1,2,1,2,3,4,3,4,
5,6,5,6,7,8,7,8,
1,2,1,2,3,4,3,4,
5,6,5,6,7,8,7,8,
1,2,1,2,3,4,3,4,
5,6,5,6,7,8,7,8,
1,2,1,2,3,4,3,4,
5,6,5,6,7,8,7,8,
{12}
1,2,3,1,2,3,3,2,1,3,2,13,
4,2,3,5,2,3,6,2,3,7,2,3,
1,2,3,3,2,1,4,4,5,6,7,8,
2,8,1,2,4,2,6,2,4,2,8,3,
3,3,1,2,4,5,6,2,4,2,3,4,
1,2,3,4,5,6,6,5,4,3,2,1,
8,2,8,8,2,8,8,2,8,8,4,58,

{8}
7b/8b,8b/1b,7b/3b,8b/2b,7b/2b,8b/3b,7b/1b,
5p4[4:4]/4>5[4:4]

{2}
,,,,
,,,,
,,,,
##comment
↑「#」を一個消して、コピーする。


  • マスターは難しいぞ -- はぴぷり (2014-08-07 17:39:17)
名前:
コメント:

タグ:

+ タグ編集
  • タグ:

このサイトはreCAPTCHAによって保護されており、Googleの プライバシーポリシー利用規約 が適用されます。

最終更新:2015年02月20日 18:03