索敵機、発艦始め!(創作譜面:mai-Star)

曲名 索敵機、発艦始め!(さくてききはっかんはじめ)
制作者名 mai-Star
音源 ---
譜面動画
: nicovideoエラー ( 正しい動画URLを入力してください. )
制作者コメント maimai四天王その3。Sランク獲得は厳しいよー
BPM EASY BASIC ADVANCED EXPERT MASTER
165 - - - 10 12

EASY


BASIC


ADVANCED


EXPERT

&inote_4=
(165){4}


1-4[9:3],,,,
5-8[9:3],,,,


1b,,3b,,
15,37,48,26,

7b,,5b,,
15,37,48,26,

1,,3,,
1,2,6,4,

7p5[11:3],,,,
2q4[11:3],,,,


{8}
1,2,3,4,5,6,7,8,
8p5[12:6],,,,,,,,

1,,3,,4,5,6,,
2,3,4,5,81,,24,,

3,,4,,1,2,3,,
1,2,3,4,5p4[11:3],,,,


8,8,1,,1,8,8,,
1,2,3,4,5p4[11:4],,,,

1,2,3,4,4,3,1,2,
2q5[11:5],,,,,,,,


5h[8:1],,6,,7h[8:1],,8,,
1,2,3,4,57,,24,,

1,2,3,4,5,6,7,8,
2q4[12:4],,,,,,,,



(165.05)
1h[8:1],,2,,3h[8:1],,4,,
1,2,3,4,57,,24,,

1,2,3,4,5,6,7,8,
(165.5)
6p4[12:4],,,,,,,,

(164.85)
1,2,3,,7,8,1,,
1,2,3,4,6,2,4,8,



4,5,6,,2,4,6,,
1,2,3,4,5,4,3,2,

1,2,3,,7,8,1,,
1,2,3,4,6,2,4,8,

4,5,6,,2,4,6,,
1,2,3,4,5,4,3,2,


1,1,2,2,3,3,4,,
5,5,6,6,7,7,8,,

1,1,2,,3,3,4,,
5,5,6,,7,7,8,,


1-4[13:4],,,,,,
5-8[14:4],,,,,,,,,,
3p6[15:6],,,,,,
2q7[16:6],,,,,,,,,,


{12}
1,,,2,2,2,3,,,4,4,4,
{4}
2b,4b,6b,8b,

{12}
1,,,2,2,2,3,,,4,4,4,
{4}
2b,4b,6b,8b,

{12}
1,,,2,2,2,3,,,4,4,4,
{4}
2b,4b,6b,8b,


{8}
3p6[15:6],,,,,,,,
2q7[16:6],,,,,,,,

12,12,34,34,57,57,86,86,
(166)
1,2,3,4,5,6,7,8b,



(170.01){4}
5,4,3,53,
5,4,3,53,
5,4,3,53,
5,4,3,75,

1,2,3,48,
2,3,1,48,
2,1,3,62,
2,4,3,62,

5,4,3,53,
5,4,3,53,
5,4,3,53,
5,4,3,75,

1,2,3,48,
2,3,1,48,
2,1,3,62,
2,4,3,62,

5,4,3,53,
5,4,3,53,
5,4,3,53,
5,4,3,75,

1,2,3,48,
2,3,1,48,
5,4,3,53,
5,4,3,75,
1,2,3,4,
5,6,7,8,
{6}
4,5,3b,2,3,4b,
3,5,7b,1,4,7b,

{4}
1h[4:1]/5h[4:1],,
3h[4:1]/7h[4:1],,
8h[4:1]/1h[4:1],,
2b/7b,,





{8}
5,4,3,53,5,4,3,53,
5,4,3,53,5,4,3,75,

1,2,3,48,2,3,1,48,
2,1,3,62,2,4,3,62,


5,4,3,53,5,4,3,53,
5,4,3,53,5,4,3,75,

1,2,3,48,2,3,1,48,
2,1,3,62,2,4,3,62,



{4}
1-4[6:1],8-5[6:1],2-7[6:1],3-6[6:1],
1-4[6:1],8-5[6:1],2-7[6:1],3-6[6:1],
1-4[6:1],8-5[6:1],2-7[6:1],3-6[6:1],
1-4[6:1],8-5[6:1],2-7[6:1],3-6[6:1],

1-4[6:1],8-5[6:1],2-7[6:1],3-6[6:1],
1-4[6:1],8-5[6:1],2-7[6:1],3-6[6:1],
1-4[6:1],8-5[6:1],2-7[6:1],3-6[6:1],
1-4[6:1],8-5[6:1],2-7[6:1],3-6[6:1],


{8}1,2,2,1,3,4,5,6,
1,2,3,4,5v4[7:2],,,,

1b/2h[8:4],,,,5b/6h[8:4],,,,
8q2[11:4],,,,,,,,



8,1,7,2,3,4,5,6,
3,5,4,6,8h[8:2],,1b,,

43,4h[8:1]/3h[8:1],,4b/3b,
78,7h[8:1]/8h[8:1],,7b/8b,



1,2b,3,4b,5,6b,7,8b,
1,,2,,3,3,4,,
5,6,7,7,8b/1b,,,,


7,2,1,8,1,8,2,7,
81,81,72,72,8b/1b,8b,7b/2b,,


{3}
,,,,,
,,,,,,,,,,,,,,,
E

MASTER

&inote_5=
(165){8}
1,2,3,4,5,6,7,8,
1,2,3,4,5,6,7,8,

{12}
1,,,2,4,3,
5,,,6,7,8,

{4}
45,81,7-4[5:1]/5-2[5:1],,


{12}
1,,,2,4,3,
5,,,6,7,8,

{4}
45,81,7-4[5:1]/2-5[5:1],,

{12}
1,,,2,4,3,
5,,,6,7,8,

{4}
45,81,7-5[5:1]/8-4[5:1],,

{12}
1,,,2,4,3,
5,,,6,,,

5,,,3,4,5,
{4}
7v4[5:1]/5v2[5:1],,

{8}
1,2,3,4,5,6,7,8,
{16}
1,2,3,4,5,6,7,8,1,2,3,4,5,6,7,8,

(165.2)
45,,27,,81,,,,1,3,2,,8,6,7,,
1,2,1,,3,4,3,,8-4[19:3]/1-5[19:3],,,,,,,,


45,,27,,81,,,,1,3,2,,8,6,7,,
1,2,1,,3,4,3,,8-5[20:3]/4-1[20:3],,,,,,,,


45,,27,,81,,,,1,3,2,,8,6,7,,
1,2,1,,3,4,3,,8-3[20:3]/1-5[20:3],,,,,,,,

{8}
1,2,3,4,5,6,7,8,
1,2,3,4,5,6,7,8b,

{16}
45,,27,36,81,,,,1,3,2,,8,6,7,,
1,2,1,,3,4,3,,8-4[19:3]/1-5[19:3],,,,,,,,


1,2,1,,5,6,5,,1,2,3,4,5,6,7,8,
1,2,1,,5,6,5,,1,2,3,4,5,6,7,8,

45,,27,36,81,,,,1,3,2,,8,6,7,,
1,2,1,,3,4,3,,8-3[20:3]/1-5[20:3],,,,,,,,

{8}
1,2,3,4,5,6,7,8,
1,2,3,4,5,6,7,8b,

87,52,36,41,87,52,36,41,
87,52,36,41,87,52,36,41,
87,52,36,41,87,52,36,41,
12,34,56,78,81,27,36,45,
87,52,36,41,87,52,36,41,
87,52,36,41,87,52,36,41,
87,52,36,41,87,52,36,41,
12,34,56,78,81,27,36,45,

1,2,3,4,5s1[12:3],,,,
5,6,7,8,8z4[12:3],,,,
1,2,3,4,5,6,7,8,
1,2,3,4,5p2[12:3],,,,


(164)
6<3[13:3]/3p6[13:3],,,,,,,,
1b,,3b,,5b,,7b,,
3>8[13:3]/8p3[13:3],,,,,,,,
1b,,3b,,5b,,7b,,

{12}
1,2,2,3,4,4,5,6,6,7,8,8,
1b,,,3b,,,5h[12:3]/7h[12:3],,,,,,

1,2,2,3,4,4,5,6,6,7,8,8,
1b,,,3b,,,8h[12:3]/1h[12:3],,,,,,

1,2,2,3,4,4,5,6,6,7,8,8,
1b,,,3b,,,5h[12:3]/7h[12:3],,,,,,

(165){16}
1,,2,,3,,4,,5,6,5,,78,,,,
1,,2,,3,,4,,5,6,5,,78,,,,

1,,2,,3,,4,,5,,6,,7,8,7,,
(166.4)
1,1,2,2,3,3,4,4,5,5,6,6,7,7,,,

(170)
1,,2,1,3,,4,,5,6,5,,7,,8,,
1,,2,,3,,4,,5,6,5,,7,8,7,,
1,,2,1,3,,4,,5,6,5,,7,,8,,
1,,2,,3,,4,,5,6,5,,7,8,7,,
1,,2,1,3,,4,,5,6,5,,7,,8,,
1,,2,,3,,4,,5,6,5,,7,8,7,,
1,,2,1,3,,4,,5,6,5,,7,,8,,
1,,2,,3,,4,,5,6,5,,7,8,7,,


1b,,2b,,,,,,

{24}
1,2,3,4,5,6,
7,8,1,2,3,4,
5,6,7,8,1,2,
3,4,5,6,7,8,

{8}
1,2,3,4,5,6,7,8,
1,2,3,4,5,6,7,8,
1,2,3,4,

1,2,3,4,5,6,5,6,
1,2,3,4,5,6,7,8,
1,2,3,4,5,6,5,6,
1,2,3,4,5,6,7,8,
1,2,3,4,5,6,5,6,
1,2,3,4,5,6,7,8,

1,2,3,4,5,6,5,6,
1,2,3,4,5,6,7,8,

(170.33){16}
1,1,,2,2,,3,,2,4,,5,6,,7,,
1,1,,2,2,,3,,2,4,,5,6,,7,,
1,1,,2,2,,3,,2,4,,5,6,,7,,
1,1,,2,2,,3,,2,4,,5,6,8,7,,

1,1,,2,2,,3,,2,4,,5,6,,7,,
1,1,,2,2,,3,,2,4,,5,6,,7,,

{6}
12,34,56,56,34,78,
12,34,56,78,34,27,

{4}
5-7[5:1]/4v7[5:1],,4-2[5:1]/5v2[5:1],,
1-3[5:1]/8v3[5:1],,8-6[5:1]/1v6[5:1],,

8v1[5:1],2v3[5:1],4v5[5:1],6v7[4:1],
1v4[5:1],4v7[5:1],7>7[5:1],,

{12}
81,,,1,1,1,54,,,4,4,4,
{8}
1,2,3,4,2q7[9:2]/6q3[9:2],,,,

{16}
1,,2,2,3,,3,3,4,5,4,5,4,5,4,5,
4,,5,5,6,,7,7,8,1,8,1,8,1,8,1,

{8}
1b/2b,8b/2b,7b/2b,8b/1b,
1b/2b,8b/2b,7b/2b,8b/1b,
1b/2b,8b/2b,7b/2b,8b/1b,
8q1[6:1]/1>8[6:1],,,,


{16}
1,,2,2,3,,3,3,4,5,4,5,4,5,4,5,
4,,5,5,6,,7,7,8,1,8,1,8,1,8,1,
1,,2,2,3,,3,3,4,5,4,5,4,5,4,5,
4,,5,5,6,,7,7,8,1,8,1,8,1,8,1,
1,,2,2,3,,3,3,4,5,4,5,4,5,4,5,
4,,5,5,6,,7,7,8,1,8,1,8,1,8,1,
1,,2,2,3,,3,3,4,5,4,5,4,5,4,5,
4,,5,5,6,,7,7,8,1,8,1,8,1,8,1,
(170)
{8}
,,1b,8b,,,1b,8b,
{8}
1b,3b,5b,7b,1b/8b,,,,
{4}
1b,,2b,,
{8}
1b,3b,5b,7b,1b/8b,,,,
{16}
1,,2,2,3,,3,3,4,5,4,5,4,5,4,5,
4,,5,5,6,,7,7,8,1,8,1,8,1,8,1,
{8}
1,2,3,4,5,6,7,8,
1,2,3,4,5b,3b,1b,7b,
(169.1)
{8}
1,2,3h[8:1],,5,6,7h[8:1],,
{8}
1b,3b,5b,7b,1b/8b,,,,

1,2,3,4,5,6,7,8,
81,76,23,45,
4q5[7:3]/5<4[7:3],,,,
,,,,,,,,,,,,
,,,,,,,,,,

タグ:

+ タグ編集
  • タグ:

このサイトはreCAPTCHAによって保護されており、Googleの プライバシーポリシー利用規約 が適用されます。

最終更新:2015年02月20日 18:10