発動!渾作戦(創作譜面:mai-Star)

曲名 発動!渾作戦(はつどうこんさくせん)
制作者名 mai-Star
音源 ---
譜面動画
: nicovideoエラー ( 正しい動画URLを入力してください. )
制作者コメント maimai四天王その4。16分入っているので、コンボカッターされやすいかも。
BPM EASY BASIC ADVANCED EXPERT MASTER
165-170 - - - 11 12

EASY


BASIC


ADVANCED


EXPERT

&inote_4=
(165){8}
1,2,,,,,,,
1,2,,,,,,,
1,2,,,,,,,
1b,,3b,,5b,,7b,,
5,6,,,,,,,
5,6,,,,,,,
5,6,,,,,,,
8p5[12:5],,,,,,,,
4,5,5,4,,6,3,,
4,5,5,4,,6,3,,
4,5,5,4,,6,3,,
1q3[12:5],,,,,,,,
8,1,1,8,,7,2,,
8,1,1,8,,7,2,,
8,1,1,8,,7,2,,
6z2[12:5],,,,,,,,
1s5[14:5],,,,,,,,
{4}
2h[4:1],3h[4:1],4,5,

{8}
4,5,4,5,4,5,4,5,
4b,,2b,,6b,,8b,,
2b,,,,4b,,,,
7q6[16:5]/2p3[16:5],,,,,,,,

4,5,4,5,4,5,4,5,
6,3,6,3,6,3,6,3,
1,7,1,7,1,7,1,7,
8,2,8,2,8,2,8,2,

{8}
4,5,4,5,4,5,4,5,
4b,,2b,,6b,,8b,,
2b,,,,4b,,,,
7p6[16:5]/2q3[16:5],,,,,,,,
{4}
4,5,4,5,6,3,6,3,
1,7,1,7,8,2,8,2,

{8}
8,7,5,6,,3,2,,
1,2,3,4,,6,7,,
7,8,1,2,,4,5,,
3,4,5,6,,8,1,,

8,7,5,6,,3,2,,
1,2,3,4,,6,7,,
7,8,1,2,,4,5,,
3,4,5,6,,8,1,,

1,2,3,4,5,6,7,8,
5,6,7,8,1,2,3,4,
5,6,3,4,1,2,7,8,
1b,,3b,,5b,,7b,,

1,2,3,4,5,6,7,8,
5,6,7,8,1,2,3,4,
5,6,3,4,1,2,7,8,
1b,,3b,,5b,,7b,,

7b/2b,,8q1[16:20]/1b,,
,,,,
(171)
,,,,
,,,,

(170.1)
1,1,2,1,1,2,3,4,
1,2,3,4,5,6,7,8,
5,5,6,5,5,6,7,8,
8,7,6,5,4,3,2,1,

1,1,2,1,1,2,3,4,
1,2,3,4,5,6,7,8,
5,5,6,5,5,6,7,8,
8,7,6,5,4,3,2,1,

1,1,2,1,1,2,3,4,
1,2,3,4,5,6,7,8,
5,5,6,5,5,6,7,8,
8,7,6,5,4,3,2,1,




{16}
8,1,,4,5,,2,,
8,1,,4,5,,1,,
8,1,,4,5,,3,,
8,1,,4,5,,4,,

8,1,,4,5,,2,,
8,1,,4,5,,1,,
12,,34,,56,,78,,
81,,8b/2b,,7b/1b,,,,


8,1,,4,5,,2,,
8,1,,4,5,,1,,
8,1,,4,5,,3,,
8,1,,4,5,,4,,

8,1,,4,5,,2,,
8,1,,4,5,,1,,
12,,34,,56,,78,,
12,,34,,56,,78,,

6,7,,3,4h[16:2],,,,
5,2,,1,8h[16:2],,,,
6,7,,3,4h[16:2],,,,
5,2,,1,8h[16:2],,,,

8,1,,4,5,,2,,
8,1,,4,5,,1,,
12,,34,,56,,78,,
81,,8b/2b,,7b/1b,,,,


6,7,,3,4h[16:2],,,,
5,2,,1,8h[16:2],,,,
6,7,,3,4h[16:2],,,,
5,2,,1,8h[16:2],,,,

8,1,,4,5,,2,,
8,1,,4,5,,1,,
12,,34,,56,,78,,
8b/1b,,8b/2b,,7b/1b,,8b/1b,,

1,,2,,3,,4,,
5,6,5,,7,8,7,,
1,,2,,3,,4,,
5,6,5,,7,8,7,,
{8}
1,,3,4,,2,5,,
5,,2,6,,7,8,,
1,,7,8,,2,6,,
3,,5,4,,4,5b,,

1,,3,4,,2,5,,
5,,2,6,,7,8,,
1,,7,8,,2,6,,
3,,5,4,,4,5b,,

1,,2,,3,,4,,
5,,6,,7,,8b,,
1,,2,,3,,4,,
5,,6,,7,,8b,,
1,,2,,3,,4,,
5,,6,,7,,8,,
1,,2,,3,,4,,
5,,6,,7,,8b,,

1,1,1,1,1,1,1,1,
1b,2,3b,4,5b,6b,7b,8b,

くりかえし
(169.9){16}
8,1,,4,5,,2,,
8,1,,4,5,,1,,
8,1,,4,5,,3,,
8,1,,4,5,,4,,

8,1,,4,5,,2,,
8,1,,4,5,,1,,
12,,34,,56,,78,,
81,,8b/2b,,7b/1b,,,,


8,1,,4,5,,2,,
8,1,,4,5,,1,,
8,1,,4,5,,3,,
8,1,,4,5,,4,,

8,1,,4,5,,2,,
8,1,,4,5,,1,,
12,,34,,56,,78,,
12,,34,,56,,78,,

6,7,,3,4h[16:2],,,,
5,2,,1,8h[16:2],,,,
6,7,,3,4h[16:2],,,,
5,2,,1,8h[16:2],,,,

8,1,,4,5,,2,,
8,1,,4,5,,1,,
12,,34,,56,,78,,
81,,8b/2b,,7b/1b,,,,


6,7,,3,4h[16:2],,,,
5,2,,1,8h[16:2],,,,
6,7,,3,4h[16:2],,,,
5,2,,1,8h[16:2],,,,

8,1,,4,5,,2,,
8,1,,4,5,,1,,
12,,34,,56,,78,,
8b/1b,,8b/2b,,7b/1b,,8b/1b,,
{8}
5p4[11:13]
,,,,
,,,,
,,,,
,,,,
5p4[11:8]/4b
,,,,
,,,,
,,,,
,,,,
,,,,
,,,,
,,,,
,,,,
,,,,
,,,,
,,,,
,,,,
,,,,
,,,,
,,,,
,,,,


MASTER

&inote_5=
(165){8}
1
1,2h[8:7],,,,,,,
1,4h[8:7],,,,,,,
1,6h[8:5],,,,,,,
12,,34,,56,,7b/8b,,
5,8h[8:7],,,,,,,
5,6h[8:7],,,,,,,
5,4h[8:7],,,,,,,
8q1[12:5],,,,,,,,
4,5,5,4,,6,3,63,
4,5,5,4,,6,3,63,
4,5,5,4,,6,3,63,
1q4[12:5],,,,,,,,
8,1,1,8,,7,2,72,
8,1,1,8,,7,2,72,
8,1,1,8,,7,2,72,
2s6[12:5],,,,,,,,
8z4[14:5]/5<4[14:5],,,,,,,,

18
{4}
2b/7,8b/1,3b/4,6b/5,
19
{16}
4,3,4,3,5,2,5,2,6,1,6,1,7,8,7,8,
4b,2,4,2,2b,4,2,4,6b,8,6,8,8b,2,8,2,
{8}
2b,,,,4b,,,,
7q6[16:5]/2p3[16:5],,,,,,,,
23
{16}
4,3,4,3,5,2,5,2,6,1,6,1,7,8,7,8,
4,3,4,3,5,2,5,2,6,1,6,1,7,8,7,8,
4,3,4,3,5,2,5,2,6,1,6,1,7,8,7,8,
4,3,4,3,5,2,5,2,6,1,6,1,7,8,7,8,
27
{16}
4,3,4,3,5,2,5,2,6,1,6,1,7,8,7,8,
4b,2,4,2,2b,4,2,4,6b,8,6,8,8b,2,8,2,
{8}
2b,,6,,4b,,8,,
7p6[16:5]/2q3[16:5],,,,,,,,
{4}
4,5,4,5,6,3,6,3,
1,7,1,7,8b,2b,8b,2b,
33
{8}
8,7,5,6-3[5:1],,3,2,,
1,2,3,4-6[5:1],,6,7,,
7,8,1,2-4[5:1],,4,5,,
3,4,5,6-8[5:1],,8,1,,

8,7,5,6h[8:1],,3,2,,
1,2,3,4h[8:1],,6,7,,
7,8,1,2h[8:1],,4,5,,
3,4,5,6h[8:1],,8,1,,
41
1,2,3,4,5,6,7,8,
5,6,7,8,1,2,3,4,
5,6,3,4,1,2,7,8,
1b,2,3b,4,5b,6,7b,8,

1,2,3,4,5,6,7,8,
5,6,7,8,1,2,3,4,
5,6,3,4,1,2,7,8,
1b,2,3b,4,5b,6,7b,8,

7b/2b,,8q1[16:20]/1>8[16:20],,
,,,,
(171)
,,,,
,,,,

51

(170.1)
1,1,2,1,1,2,3,45,
1,2,3,4,5,6,7,85,
5,5,6,5,5,6,7,85,
8,7,6,5,4b,3,2,15,

1,1,2,1,1,2,3,45,
1,2,3,4,5,6,7,85,
5,5,6,5,5,6,7,85,
8,7,6,5,4b,3,2,15,

1,1,2,1,1,2,3,4,
1,2,3,4,5,6,7,8,
5,5,6,5,5,6,7,8,
{24}
8,,,7,,,6,,,
1,2,3,4,5,6,7,8,1,2b,
,,,,,

63
{16}
8,1h[8:1],,4,5,5,2,,
8,1h[8:1],,4,5,2,1,,
8,1h[8:1],,4,5,2,3,,
8,1h[8:1],,4,5,2,4,,

8,1,,4,5,,26,,
8,1,,4,5,,15,,
12,,34,,56,,78,,
81,,8/2b,,7/1b,,,,

8,1h[8:1],,4,5,5,2,,
8,1h[8:1],,4,5,2,1,,
8,1h[8:1],,4,5,2,3,,
8,1h[8:1],,4,5,2,4,,

8,1,,4,5,,26,,
8,1,,4,5,,15,,
12,,34,,56,,78,,
12,,34,,56,27,78,,

6,7,,3,4h[16:2],,,,
5,2,,1,8h[16:2],,,,
6,7,,3,4h[16:2],,,,
5,2,,1,8h[16:2],,,,

8,1,,4,5,,2,,
8,1,,4,5,,1,,
12,,34,,56,,78,,
81,,8/2b,,7/1b,,,,


61,7,,3,4h[16:2],,,,
51,2,,1,8h[16:2],,,,
61,7,,3,4h[16:2],,,,
51,2,,1,8h[16:2],,,,

8,1,,4,5,5,2,,
8,1,,4,5,5,1,,
12,27,34,,56,78,78,,
8b/1b,,8b/2b,,7b/1b,,8b/1b,,

1,1,2,,3,3,4,,
5,6,5,,7,8,7,,
1,1,2,,3,3,4,,
5,6,5,,7,8,7,,

81
{8}
1,1,3,4,,2,5,,
5,5,2,6,,7,8,,
1,1,7,8,,2,6,,
3,2,5,4,,4,5b,,

1,1,3,4,,2,5,,
5,5,2,6,,7,8,,
1,2,7,8,,2,6,,
3,2,5,4,,4,5b,,

1,1,2,,3,,4,,
5,2,6,,7,,8b,,
1,4,2,,3,,4,,
5,2,6,,7,,8b,,
1,8,2,,3,,4,,
5,5,6,,7,,8,,
1,4,2,,3,,4,,
5,2,6,,7,,8b,,

81,81,81,81,81,81,81,81,
1b,2,3b,4,1s5[10:2],,,,

99
くりかえし
(169.9){16}
8,1,,4,5,4,2,,
8,1,,4,5,2,1,,
8,1,,4,5,2,3,,
8,1,,4,5,2,4,,

8,1,,4,5,3,2,,
8,1,,4,5,3,1,,
12,,34,,56,,78,,
81,,8b/2b,,7b/1b,,,,

8,1,,4,5,8,2,,
8,1,,4,5,4,1,,
8,1,,4,5,2,3,,
8,1,,4,5,2,4,,

8,1,,4,5,,2,,
8,1,,4,5,,1,,
12,27,34,,56,,78,,
12,46,34,,56,,78,,

6,7,4,3,4h[16:2],,,,
5,2,4,1,8h[16:2],,,,
6,7,4,3,4h[16:2],,,,
5,2,4,1,8h[16:2],,,,

8,1,,4,5,,2,,
8,1,,4,5,,1,,
12,,34,,56,,78,,
81,,8b/2b,,7b/1b,,,,


6,7,8,3,4h[16:2],,,,
5,2,8,1,8h[16:2],,,,
6,7,8,3,4h[16:2],,,,
5,2,8,1,8h[16:2],,,,

81,1,61,4,51,1,21,4,
8,1,4,4,5,1,1,4,
12,1,34,3,56,5,78,,
8b/1b,,8b/2b,,7b/1b,,8b/1b,,
{8}
5p4[11:13]/4>5[11:13]
,,,,
,,,,
,,,,
,,,,
5p4[11:8]/4>5[11:8]
,,,,
,,,,
,,,,
,,,,

118
,,,,
,,,,
,,,,
,,,,

END

,,,,
,,,,
,,,E

タグ:

+ タグ編集
  • タグ:

このサイトはreCAPTCHAによって保護されており、Googleの プライバシーポリシー利用規約 が適用されます。

最終更新:2015年02月20日 17:41