患部で止まってすぐ溶ける~狂気の優曇華院

BPM EASY BASIC ADVANCED EXPERT MASTER Re:MASTER
200 2 4 7 9+ 13 14

EXPERT MASTER Re:MASTER
譜面制作者 はっぴー Jack Unkonwn

EASY


BASIC


ADVANCED


EXPERT


MASTER

(200){8}
78,,1-5[8:1],8,7,6,,56,
,45,45,,67,78,,,
12,,8-4[8:1],1,2,3,,34,
,45,45,,{16}3,4,5,6,2b/7b,,,,
{8}
56,,4-8[8:1],5,6,7,,78,
,45,45,,67,78,,,
34,,5-1[8:1],4,3,2,,12,
,45,45,,2-7[16:1]/3-6[16:1],,23,,

8,4,6,2,5,3,7,1^4[4:1],
,4^7[4:1],,7^2[4:1],,2-6[8:1],,,
7,3,5,1,6,2,4,8^5[4:1],
,5^2[4:1],,2^7[4:1],,7-3[8:1],,,
2,4,1,5,8,6,7,6^3[4:1],
,3^8[4:1],,8^5[4:1],,5-1[8:1],,,

{4}2-6[8:1],2/8-4[8:1],8/3-7[8:1],3/5-1[8:1],
5/4-8[8:1],4/7-3[8:1],7/1-4[8:1],1b,

{8}
57,6,6,6,24,3,3,3,45,6,6,6,45,3,3,3,
21,2,28,2,27,2,26,2,{4}2q7[8:1],2b,6q3[8:1],6b,
{2}4-8[16:1]/1h[4:1],5-1[16:1]/8h[4:1],1h[4:1]/3-8[16:1],8h[4:1]/6-1[16:1],
{16}7,8,7,,2,1,2,,7,8,7,,2,1,2,,{2}1^4[16:1]/8^5[16:1],4-7[16:1]/5-2[16:1],
{8}2h[8:1],1,7h[8:1],8,1h[8:1],2,8h[8:1],7,
3h[8:1],4,6h[8:1],5,4h[8:1],3,5h[8:1],6,
45,45,45,45,56,,34,,{2}4-7[16:1]/8-3[16:1],1-6[16:1]/5-2[16:1],
{8}1,1,28,,8,8,17,,36,27,18,,{16}18,27,36,,{8}45,,
{16}3,4,3,,6,5,6,,4,3,2,1,8,7,6,5,1,2,3,4,5,6,7,8,{8}1^4[16:1],5^8[16:1],,,

2,4,2,5,2,6,2,7,{16}4,5,4,5,3,6,3,,27,,,36,,,1b/8b,,
{8}
7,5,7,4,7,3,7,2,{16}1,8,1,8,2,7,2,,{4}3-8[16:1]/6-3[16:1],3b/6b,

{8}
1^4[8:1],5,1^6[8:1],,,,48,,6/7h[8:5],,3,2-6[8:1],,2,,,
67,,56,45,34,,23,,2h[8:5]/3,,6,7-3[8:1],,7,,,

{1}1-5[4:3],,6,7,7-3[4:3],,2,1,

{4}1-5[16:1],7-3[16:1],4-8[16:1],6-2[16:1],3-7[16:1],5-1[16:1],2-6[16:1],,
{8}7,6,58,,3,2,14,,3,6,4,5,27,,,,
{4}8-4[16:1],2-6[16:1],5-1[16:1],3-7[16:1],6-2[16:1],4-8[16:1],7-3[16:1],,
{8}21,2,28,2,{16}2h[8:3]/7,,,6,,,5,,{4}34,56,1b/2b,7b/8b,

1-5[8:1],1/7-3[8:1],7/4-8[8:1],4/6-2[8:1],6/3-7[8:1],3/5-1[8:1],5/2-6[8:1],2,
{8}7,8,1,2,3,4,15,,48,37,26,15,8^3[16:1]/4^7[16:1],,,,
{4}8-4[8:1],8/2-6[8:1],2/5-1[8:1],5/3-7[8:1],3,{8}18,27,36,,,4>6[8:3],
,,,5-1[8:1],5h[8:3],,,8,{4}78,12,5b/6b,3b/4b,

1-5[8:1],1/7-3[8:1],7/4-8[8:1],4/6-2[8:1],6,{8}3,2,14,,,6h[8:3],
,7,8,,2h[4:1],3,4,,15,26,37,48,5^2[16:1]/1^6[16:1],,,,
{4}8-4[8:1],8/2-6[8:1],2/5-1[8:1],5/3-7[8:1],3,{8}6,7,58,,,5<3[8:3],
,,,4-8[8:1],4h[8:3],,,1,{2}2p4[8:1],6p8[8:1],

{8}1-5[16:1],1,7-3[16:1],7,4-8[16:1],4,6-2[16:1],6,
3-7[16:1],3,5-1[16:1],5,2-6[16:1],2,,,
7,4,7,26,3,8,3,45,6,1,6,37,{16}6,5,4,3,2b/7b,,,,
{8}8-4[16:1],8,2-6[16:1],2,5-1[16:1],5,3-7[16:1],3,
6-2[16:1],6,4-8[16:1],4,7-3[16:1],7,,,
2,1,2,37,6,5,6,45,3,4,3,26,3v1[8:1]/7v5[8:1],,,,

2,38,7,26,7,46,3,45,6,17,2,36,5,16,2,38,
7,48,3,27,3,47,6,45,3,28,7,36,{16}45,36,27,18,2b/7b,,,,
{8}18,26,47,35,16,28,47,36,18,37,25,46,38,17,25,46,
5h[4:1]/7h[4:1],,,,2h[4:1]/4h[4:1],,,1-4[8:1]/5-8[8:1],
,1b/5b,,,{16}37,26,15,84,73,,,,1b/8b,

Re:MASTER


  • エラーコード34が発生します。修正よろしくお願いします。 -- 名無しさん (2017-09-26 10:37:13)
名前:
コメント:

タグ:

+ タグ編集
  • タグ:

このサイトはreCAPTCHAによって保護されており、Googleの プライバシーポリシー利用規約 が適用されます。

最終更新:2021年05月02日 19:34