Scars of FAUNA

アーティスト 猫叉MASTER 「jubeat」より

BPM EASY BASIC ADVANCED EXPERT MASTER
165 2 4 7 11 13+

EASY


BASIC

(165.0){1},,,,,,
{2},7,
{4},7,,,
{4}8,,,8,
{2},1,
{4},1,,,
{4}2,,,2,
{2},1-4[4:5],{1},,
{2},8-5[4:5],{1},,
{2},2-7[4:5],{1},,
{2},6-3[4:5],{1},,
{2},2,
{4},8,,,
{4}6,,,4,
{2},1/2,
{4},3/4,,,
{4}5/6,,,7/8,
{2},1b/8b,
{4},1,1,,
{4}2,2,,3,
{4}3,,4,4,
{4},8,8,,
{4}7,7,,6,
{4}6,,5,5,
{4},4h[4:3],,,
{4},,,5h[4:3],{1},
{4},3h[4:3],,,
{4},,,6h[4:3],{1},
{4},8,,8,
{4}8,,1,1,
{4},2,2,,
{4}3,3,,4,
{4}4,,5,5,{1},
{4},1,,1,
{4}1,,8,8,
{4},7,7,,
{4}6,6,,5,
{4}5,,4/5,4/5,
{4},3/6,3b/6b,,
{4},4,4,4,
{4},,,5,
{4}5,5,,,
{4},3,3,3,
{4},,,6,
{4}6,6,,,
{4},2,2,1,
{4},,,8,
{4}8,7,,,
{4},6,6,5,
{4},,,4,
{4}4,3,,,
{4},1,1,2,
{4}2,,,8,
{4}8,7,7,,
{4},6,6,5,
{4}5,,,3,
{4}3,4,4,,
{4},1,1,,
{4}3,3,,8,
{4}8,,6,6,
{4},4/5,4/5,,
{4}3/6,3/6,,2/7,
{4}2/7,,1/8,1/8,
{4},2/7,2/7,,
{1}1b/8b,
E

ADVANCED

(165.0){2},3h[2:1],
{4},5h[2:1],,,
{4}4h[2:1],,,6h[2:1],
{2},3h[2:1]/4h[2:1],
{4},5h[2:1]/6h[2:1],,,
{4}7h[2:1]/8h[2:1],,,1h[2:1]/2h[2:1],
{4},,4,4,
{4}4/5,5,5,4/5,
{4}3,3,3/4,6,
{4}6,5/6,1,1,
{4}1/8,8,8,1/8,
{4}7,7,7/8,2,
{4}2,1/2,{2}8<3[1:1],{1},
{1}2<5[1:1],
{2},1>6[1:1],{1},
{1}7>4[1:1],
{4},,1,2,
{4}3,8,7,6,
{4}2,3,4,7,
{4}6,5,3/6,3/6,
{4}3/6,2/7,2/7,2/7,
{4}1/8,1/8,1/8,2/7,
{4}3/6,4b/5b,5,6,
{4}7,4,3,2,
{4}6,7,8,3,
{4}2,1,8,7,
{4}6,1,2,3,
{4}7,6,5,2,
{4}3,4,,,
{4},2,2,2p6[2:1],
{4},,,7,
{4}7,7q3[2:1],,,
{4},3,3,3p6[2:1],
{4},,,6,
{4}6,6q3[2:1],,,
{4},2,2,1/2,
{4}3,3,3/4,6,
{4}6,5/6,7,7,
{4}7/8,2,1/2,1/2,
{4}3,3/4,3/4,6,
{4}5/6,5/6,7,7/8,
{4}7/8,,1/8,1/8,
{4}2/7,3/6,4/5,,
{4}4/5,4/5,3/6,2/7,
{4}1/8,,2/7,2/7,
{4}1/8,1/8,3/6,3h[4:5]/6h[4:5],{1},
{4},,1/2,1/2,
{4}3/4,5/6,5/6,,
{4}7/8,7/8,5/6,3/4,
{4}3/4,,1/8,2/7,
{4}3/6,4/5,3/6,2h[2:1]/7h[2:1],
{2},2b/7b,
{8},,2/7,,1,8,1,,
{8}2/7,,1,8,1,,1,8,
{8}2,7,3,6,4h[2:1],,,,
{8},,5,4,5,,4/5,,
{4}4h[4:1],3h[4:1],2h[4:1],8z4[1:1],{1},
{8},,2/7,,8,1,8,,
{8}2/7,,8,1,8,,8,1,
{8}7,2,6,3,5h[2:1],,,,
{8},,4,5,4,,4/5,,
{4}5h[4:1],6h[4:1],7h[4:1],8h[4:1],
{4},,7,3,
{4}1b,2,2,1/3,
{4}2,2,1/3,8,
{4}8,1/7,8,8,
{4}1/7,1,1,2/8,
{4}1,1,2/8,7,
{4}7,6/8,7,7,
{8}6/8,,3,,3,4,3,,
{8}6,,6,5,6,,2,,
{8}2,1,2,,7,,7,8,
{8}7,,5/6,,5/6,5/6,5/6,,
{8}3/4,,3/4,3/4,3/4,,5/7,,
{8}5/7,5/7,5/7,,2/4,,2/4,2/4,
{8}2/4,,2/7,,2/7,2/7,2/7,,
{8}1/8,,1/8,1/8,1b/8b,
E

EXPERT

(165.0){2},1h[2:3],{1},
{4}5h[4:3],,,3h[2:3],
{2},1h[2:3],{1},
{4}8h[4:5],,,6h[2:1],
{16},,,,,,,,4,,,5,,,4,,
{16}4,,,,5,,,4,,,5,,5,,,,
{16}3,,,4,,,3,,3,,,,6,,,5,
{16},,6,,6,,,,1,,,8,,,2/7,,
{16}2/7,,,,8,,,1,,,2/7,,2/7,,,,
{16}3,,,6,,,4/5,,4/5,,,,1/8,,,1/8,
{8},2/7,1b/8b,,8h[4:1],,2,1,
{8}2,,7h[4:1],,2,3,2,,
{8}6h[4:1],,3,4,3,,5h[4:1],,
{8}4,5,4,,4h[4:1],,7,8,
{8}7,,3h[4:1],,7,6,7,,
{8}2h[4:1],,6,5,6,,1b/5b,,
{4}3b/7b,1b/5b,4/8,2h[4:1],
{4}3,4/8,6h[4:1],5,
{4}1/5,3h[4:1],4,1/5,
{16}3/7,,,,,,,,3,,,6,,,1/8,,
{16}2/7,,,,6,,,3,,,1/8,,2/7,,,,
{16}1/8,,,1/8,,,1/8,,2/7,,,,1/8,,,,
{4}2/7,3/6,{2}4v1[2:1]/5v8[2:1],{1},
{4}3/4,3/5,3/6,5/6,
{4}4/6,3/6,2/3,1/3,
{4}3/8,4/8,5/8,6/8,
{16}6/8,,,,1/5,,,,2/4,,,,3,,,4,
{8},2,2z6[2:1],,,,,,
{4},1h[4:1],2h[4:1],3h[4:3],
{4}8,7,6,5h[4:1],
{4}6h[4:1],7h[4:3],4,3,
{4}2,1h[4:1],3h[4:1],5h[4:1],
{4}7,6/8,1/5,8h[4:1],
{4}6h[4:1],4h[4:1],2,1/3,
{4}4/8,7h[2:1],6,5,
{4}2h[2:1],3,4,7h[4:1],
{4}5,4/6,2h[4:1],4,
{4}3/5,2/3,1/2,1/8,
{4}6/7,7/8,1/8,3/4,
{4}3/4-7[8:1],3,3,7/3-8[8:1],
{4}7b,7h[4:3],1,1,
{4}1h[4:3],3,3,3h[4:3],
{4}5,5,5h[4:3],8,
{4}8,8h[4:3],6,6,
{4}6h[4:3],4,4,4h[2:1],
{8}2,,2,,8-4[8:1],1-5[8:1],,,
{4},4/2h[4:1],8h[4:1],6h[4:1],
{8}8,,2-6[8:1],7-3[8:1],,,,,
{8}1h[4:1],,3h[4:1],,1,,1/7-3[4:1],1,
{4}1,,1/2h[2:1],8,
{8}7,,1,8,2,7,2h[8:3]/6h[8:3],,
{4},,2b/6b,3b/7b,
{8}4b/8b,,1,1,8,1,1,8,
{8}3,3,4,3,3,4,1,8,
{8}2,7,3,6,4h[8:3],,,6,
{8},3,5,5,4,5,5,4,
{8}5h[4:1],,3,3h[4:1],,7,7h[2:1],,
{8},,1-5[4:1],1,1,,,,
{8}6,,6,6,5,6,6,5,
{8}8,8,1,8,8,1,5,4,
{8}6,3,7,2,8h[8:3],,,2,
{8},7,1,1,3,1,1,7,
{8}1h[4:1],,5,5h[4:1],,3,3h[2:1],,
{4},8-5[8:1],8-3[8:1],8-4[8:1],
{4},2q4[4:1],,,
{4}4q6[4:1],,,6q8[4:1],
{2},8q2[4:1],
{16},,,,1/8,,,1/8,,,2/7,,1/8,,,,
{16}2/7,,,2/7,,,1/8,,2/7,,,,1/2,,,1/2,
{16},,3/8,,1/2,,,,7/8,,,7/8,,,1/6,,
{4}7/8,7p5[4:1],,,
{4}5p3[4:1],,,3p1[4:1],
{2},1p7[4:1],
{4},1-5[16:3],7-3[16:3],7,
{4}2-6[16:3],8-4[16:3],8,1^4[16:3],
{4}8^5[16:3],8,1s5[4:1],8,
{16}8,,,,3/4,,,5/6,,,2/7,,1b/8b,,,,
{16}5/6,,,3/4,,,2/7,,1b/8b,
E

MASTER

(165){16}
26,,,2,,,2,,2,,,,27,,,2,,,{24}2,1,2,{16}1,,,,
18,,,1,,,1,,1,,,,1,,,1,,,{24}1,8,1,{16}8,,,,
17,,,7,,,7,,7,,,,7,,,7,,,{24}7,8,7,{16}8,,,,
8,,,8,,,8,,8,,,,8,,,8,,,{24}8,1,8,{16}1,,,,
2,,,2,,,2,,2,,,,2,,,2,,,{24}2,1,2,{16}3,,,,
7,,,7,,,7,,7,,,,7,,,7,,,{24}7,8,7,{16}6,,,,
1,,,1,,,1,,1,,,,1,,,1,,,{24}1,8,1,{16}2,,,,
8,,,8,,,8,,8,,,,8,,,8,,,{24}8,1,8,{16}7,,,,

{8}8p5[1:1],,,,,,,,,,2,3,1-5[4:1]/4,,,,,,2-6[4:1]/3,,,,,,
1-4[4:1]/8,,,,7,6,5/8-4[4:1],,,3,,,2h[2:1]/7h[2:1],,,,,,12,,78,,18,,

1-5[8:1]/7,,1,7,5,,5-2[8:1]/7,,5,7,2,,
2-6[8:1]/7,,2,7,6,,6-3[8:1]/7,,6,7,37,,

{16}
17,,,2-6[16:1]/8-4[16:1],,,28,,,,,,
38,,,1-5[16:1]/7-3[16:1],,,17,,,,,,
27,,,1-5[16:1]/8-4[16:1],,,18,,,,,,
{4}1^4[8:1]/5^8[8:1],5p1[8:1]/1p5[8:1],5b/1b,

{16}
18,,27,,1-5[16:1]/8,27,36,,,,,,
78,,16,,7/8-4[16:1],16,25,,,,,,
12,,38,,1-5[16:1]/2,38,47,,,,,,
18,,27,,1/8-3[8:1],27,3-6[16:1]/6,,,,,,
78,,16,,7-3[16:1]/8,16,25,,,,,,
12,,38,,1/2-6[16:1],38,47,,,,,,
1/7-4[8:1],,7,,7/1-4[8:1],,
1,,17,,7,,27,,,68,,,27,,67,,,,{4},,,

1^4[8:1]/5^8[8:1],5/1-5[8:1],{16}1,,3,4,3,,6,,{24}1,2,3,{8}4,7,8,
{4}
4^1[8:1]/8^5[8:1],8-4[8:1]/4,{16}8,,7,6,5,,2,,4,,1,,{24}8,7,6,5,,,
{4}
3^8[8:1]/7^4[8:1],7-3[8:1]/3,{16}7,,6,5,6,,7,,{24}8,1,2,{8}3,7,8,
{4}
2^5[8:1]/6^1[8:1],6/2-6[8:1],{16}2,,3,4,5,,7,,{24}1,8,7,{8}6,,3,

5,6,36,5,6,36,{24}8,1,2,3,,,1,2,3,4,,,{8}45,45,
3,7,18,3,7,18,5,3,28,5,18,,
4,3,36,4,3,36,{24}1,8,7,6,,,8,7,6,5,,,{8}45,45,
6,2,18,6,2,18,4,6,17,4,18,,

{4},48,37,26,{8}1^6[8:1]/5,2/6q3[8:1],,,
{4},45,27,18,{8}1-4[8:1]/8-5[8:1],36,18,,
{4},15,26,37,{8}4/8^3[8:1],3p6[8:1]/7,,,
4h[2:1],,,,,{16}7,8,7,,{24}1,2,3,4,,,{8}27,,,
{4},15,26,37,{8}4^7[8:1]/8,3/7p1[8:1],,,
{4},45,27,18,{8}1-5[8:1]/8-4[8:1],36,18,,
{4},48,37,26,{8}1/5^2[8:1],2q8[8:1]/6,,,
4h[2:1],,,,,{24}8,7,6,5b,,,,,,{32}2b,1,,,,,,,8b,7,,,,,,,

{8}
2-6[8:1],6-2[8:1],2<4[8:1],5,5,,7-3[8:1],3-7[8:1],7>5[8:1],4,4,,
18,{24}18,27,36,{8}45,27,45,36,1h[4:1]/5h[4:1],,,3h[4:1]/7h[4:1],,,
15,26,3q8[8:1]/7,4/8^3[8:1],,,6h[4:1],,3,7h[4:1],,2,
{32}8,1,8h[16:5],,{8},,,2,7,{32}1,8,1h[16:7],,{8},,,8,,
7-3[8:1],3-7[8:1],7>5[8:1],4,4,,2-6[8:1],6-2[8:1],2<4[8:1],5,5,,
18,{24}18,27,36,{8}45,27,45,36,4h[4:1]/8h[4:1],,,2h[4:1]/6h[4:1],,,
48,37,2/6p1[8:1],1^6[8:1]/5,,,3h[4:1],,6,2h[4:1],,7,
{32}1,8,1h[16:5],,{8},,,7,,{32}4,5,4h[16:3],,{8},3h[4:1],,2,,

{16}
7,8,7,,2-5[8:1],1,2,,2,,,,2,1,2,,7-3[8:1],8,7,,7,,,,
6,5,6,,3-7[8:1],4,3,,3,,,,3,4,3,,6-2[8:1],5,6,,6,,,,

28,,,2^5[16:1]/8^5[16:1],,,28,,,,,,
17,,,1^4[16:1]/7^4[16:1],,,17,,,,,,
18,,,1^4[16:1]/8^5[16:1],,,18,,,,,,
{4}45,12,78,

{16}
12,,38,,1/2-7[8:1],38,4/7-3[16:1],,,,,,
78,,16,,7-2[8:1]/8,16,2-6[16:1]/5,,,,,,
18,,27,,1-6[8:1]/8,27,3/6-3[16:1],,,,,,
27,,36,,2-5[16:1]/7-4[16:1],36,45,,2b/7b,,,,
38,,27,,3-6[8:1]/8,27,1/6-2[16:1],,,,,,
16,,27,,1/6-3[8:1],27,3-7[16:1]/8,,,,,,
2-5[8:1]/8,,2,,2/8-5[8:1],,8,,82,,2,,27,,,13,,,27,,23,,,,

4,,,5,,,4,,5,,,,13,,,68,,,45,,2b/7b,,,,

  • E抜けてる -- 名無しさん (2017-08-12 13:16:37)
名前:
コメント:

タグ:

+ タグ編集
  • タグ:

このサイトはreCAPTCHAによって保護されており、Googleの プライバシーポリシー利用規約 が適用されます。

最終更新:2022年08月19日 13:39