EASY
BASIC
(222.0){1},
{1}4,
{1}5,
{1}3,
{1}6,
{1}2,
{1}7,
{1}1,
{1}8,
{1}1,
{1}8,
{1}2,
{1}7,
{1}3,
{1}6,
{1}4,
{1}5,
{2}4b/5b,4/5,
{2}4/5,4/5,
{2}3,3,
{4}5/6,,7,7,
{4}7,,1,1,
{4}1,8,8,8,
{1}8,,
{4},2,,2,
{4},1/2,,2h[2:3],{1},,
{2}3,3,
{2}3/4,3h[4:7],{1},,
{2}6,6,
{2}5/6,6h[2:3],{1},
{4},,,7,
{4},7,,7/8,
{4},7h[4:7],,,{1},
{4},,,1,
{4},,,1,
{4},,,1,
{4},,,1,
{4},,,1,
{4},,,1,
{4},,,1,
{4},,,1,
{4},,,1/8,
{4},,,1/2,
{4},,,3/4,
{4},,,4/5,
{4},,,5/6,
{4},,,7/8,
{4},,,1/8,
{4},,,8,
{4}8,8,,,
{4}7/8,7/8,,,
{4},,1,1,
{1}1,
{4}1/2,1/2,,,
{4},8,8,8,{1},
{4},7/8,7/8,,
{4},,,1,
{4}1,1,,,
{4},1/2,{2}1/2,{1},
{4},1b/8b,,1/8,
{4},1/8,1/8,1/8,
{4},2,,2,
{4},7,,7,
{4}7,7,,1,
{4}1,1,8,8,
{4}8,8,,,
{2},1,
{2}8,1/8,
{2},2/7,{1},
{1}3/6,
{4},,,4/5,{1},,
{1}1-4[4:7]/8-5[4:7],,,,,,,,
{4}3,3,3,,
{4},3/4,3/4,,
{4},,,6,
{4}6,6,,,
{4},5/6,5/6,,
{4},,3,3,
{1}3,
{4},,3/4,3/4,{1},
{4}6,6,6,,
{4},,5/6,5/6,{1},
{4},,7,7,
{1}7,
{4}8,8,8,,
{4},,1,1,
{1}1,
{4}2,2,2,,
{4},1/8,1/8,1/8,
{4},1/8,,2/7,
{4}2/7,2b/7b,
E
ADVANCED
(222.0){1},
{1}3h[1:1],
{1}5h[1:1],
{1}4h[1:1],
{1}6h[1:1],
{1}2h[1:1],
{1}5h[1:1],
{1}4h[1:1],
{1}6h[1:1],
{1}3h[1:1],
{1}5h[1:1],
{1}1h[1:1],
{1}7h[1:1],
{1}2h[1:1],
{1}8h[1:1],
{1}4h[1:1],
{1}6h[1:1],
{2}3,1b/8b,
{4}2/7,2/7,2/7,1,
{4}1,8,8,3,
{4}3,6,6,4,
{4}5,4,6,6,
{4}6,2,2,2,
{1}8b,,
{4},1-5[8:7],,,{1},
{1}7>3[8:9],,
{1}4-8[8:7],
{4},,,6<2[8:11],{1},,
{1}3>6[8:9],,
{1}5q4[8:7],
{4},,,3-7[8:7],{1},
{2},8z4[8:11],{1},
{4},,,2h[1:1],
{4},,,8h[1:1],
{4},,,1h[1:1],
{4},,,7h[1:1],
{4},,,4h[1:1],
{4},,,6h[1:1],
{4},,,2h[1:1],
{4},,,5h[1:1],
{4},,,1h[1:1],
{4},,,7h[1:1],
{4},,,4h[1:1],
{4},,,6h[1:1],
{4},,,2h[1:1],
{4},,,8h[1:1],
{4},,,1h[1:1],
{4},,,8,
{4}1/8,2,7,3,
{4}4/5,4/5,6,6,
{4}3,3,2/7,2/7,
{4}2/7,3,4,5,
{4}3/6,3/6,2,8,
{4}1,2/7,2/7,2/7,
{4}3/6,3/6,7,1,
{4}8,2/7,2/7,6,
{4}6,3,3,4/5,
{4}4/5,4/5,6,5,
{4}4,3/6,3/6,7,
{4}1,8,2/7,2/7,
{4}1/8,1b/8b,,3b/6b,
{4},4/5,4/5,4/5,
{4}3,3,7,7,
{4}2,2,6,6,
{4}4,5,4,7,
{4}7,7,1,1,
{4}1,1b/8b,,,{1},
{2},8-2[2:1],
{2},3-7[1:1],{1},
{1}6-4[2:1],
{4},,,1-5[1:1],{1},,
{1}3b,,,,,,,
{2},1b/8b,
{4}1/2,2-5[8:3],,,
{4},5/6,6^3[2:1],,
{4},,,1/2,
{4}7/8,7-4[8:3],,,
{4},3/4,3^6[2:1],,
{4},,7/8,1/8,
{4}1/2,1/8,1-5[8:3],,
{4},,5/6,6-2[2:1],{1},
{4}1/2,1/8,8-4[8:3],,
{4},,3/4,3-7[8:3],
{4},,,7/8,
{4}1/8,2,2,6,
{4}6,4,4,8,
{4}8,1,2,3,
{4}4/5,6,5,4,
{4}3,3/4,6,5/6,
{4}7,7/8,2,1/2,
{4}8,1/8,2/7,2b/7b,
{4},4b/5b,,3/6,
{4}2/7,1/8,1b/8b,
E
EXPERT
(222.0){1},
{1}3h[1:1],
{2}1,4/5,
{1}6h[1:1],
{2}8,4/5,
{1}3h[1:1],
{2}1,4/5,
{1}6h[1:1],
{2}8,4/5,
{1}4,
{1}5,
{2}3,6,
{2}2,7,
{4}1,8,2,7,
{4}3,6,4,5,
{8}4,5,2,4,3,7,5,6,
{8}1,8,3,1,2,6,8,,
{8}2b/7b,,,,7/8,7/8,,1/2,
{4}1/2,2/8,1/7,3/5,
{8}4/6,,3,5,6,5,4,3,
{8}4,6,5,3,4,,1,6,
{8}8,7,1/6,,8,3,1,2,
{8}3/8,,7,5,4,2,5,4,
{4}3/6,4,4,5,
{8}5,,1,1,8,8,1,1,
{8}8,,2,3,1,8,2,3,
{8}1,8,2,3,1,8,3/5,,
{8}7,6,8,1,7,6,8,1,
{8}7,6,8,1,6,5,3,4,
{8}3,2,4,5,3,2,4,5,
{8}3,2,4,5,2/8,,6,7,
{8}5,4,6,7,5,4,6,7,
{8}5,4,5p4[8:3],,,,,,
{8}7,5,8,3,7,5,8,3,
{8}7,5,8,3,2/4,,2,4,
{8}1,7,2,4,1,7,2,4,
{8}1,7,3,4,6,5,3,1,
{8}4,7,3,1,4,7,3,1,
{8}4,7,6/8,,6,8,5,3,
{8}6,8,5,3,6,8,5,3,
{8}6z2[8:3],,,,,,8,7,
{8},7,,7,,7,1,6,
{8},6,,6,,6,2,5,
{8},5,,5,,5,3,4,
{8},4,,4,,4,1,2,
{8},2,,2,,2,8,3,
{8},3,,3,,3,7,4,
{8},4,,4,,4,6,5,
{8},5,,5,1,6,,6,
{8},6,2,7,,7,,3/7,
{8},7,3,8,,8,,8,
{8}4,1,,1,,1,5,2,
{8},2,6,3,,3,,3,
{8}7,4,,4,,4/8,,4,
{8}8,5,,5,,5,1,6,
{8},6,,6,2b,,4/7,,
{8}1/6,,8-4[8:1],8,,1,1,,
{8}3/8,,2/5,,7-3[8:1],7,,2h[4:1],
{8},1,1,,4/7,,2/5,,
{8}3/4,,2-6[8:1],2,,7,7,,
{8}1/6,,3/8,,1-5[8:1],1,,8,
{4}8,1/3,4/5,6/8,
{8}2/5,,3/8,,1-5[8:1],1,,8,
{8}8,,1/6,,4/7,,2-6[8:1],2,
{8},7h[4:1],,8,8,,2/5,,
{8}4/7,,5/6,,7-3[8:1],7,,2,
{8}2,,3/8,,1/6,,8-4[8:1],8,
{8},1,1,,6/8,,4/5,,
{8}1/3,,2b/7b,,,,1/2,1/2,
{8},7/8,7/8,,1/7,,2/8,,
{8}4/6,,3/5,,6,4,3,4,
{8}5,6,5,3,4,6,5,,
{8}8,3,1,2,3/8,,1,6,
{8}8,7,1/6,,2,4,5,7,
{8}4,5,3b/6b,,1,,7,,
{8}5,,3,,8,8,1,1,
{8}7,7,2,,8^5[2:1],,,,
{2},8<4[4:3],{1},
{1}8<3[1:1],
{4},,,8<2[4:5],{1},,
{8}8<1[4:11],8,,,,,,,{1},,
{4},,4,4,
{4}5,5,3,3,
{4}6,2,7,1,
{8}8,8,1,1,6,6,3,3,
{8}5,4,5,,3b/6b,,,,
{8}1/5,,3/7,,2q6[8:1],2,,7,
{8}7,,4/8,,2/6,,7p3[8:1],7,
{8},1h[4:1],,8,8,,3/7,,
{8}1/5,,3/4,,8v3[8:1],8,,1,
{8}1,,2/6,,4/8,,1v6[8:1],1,
{8},8,8,,2/4,,1/8,,
{8}5/7,,4/8,,2/6,,7p3[8:1],7,
{8},2,2,,1/5,,3/7,,
{8}2q6[8:1],2,,8h[4:1],,1,1,,
{8}2/6,,4/8,,5/6,,1v6[8:1],1,
{8},8,8,,3/7,,1/5,,
{16}8v3[8:1],,8,,,,1,,1,,,,5/6,,,4/5,
{8},3/4,,6,4,3,4,5,
{8}2,4,,6,5,7,5,,
{16}3/4,,,4/5,,,5/6,,,,3,,4,,2,,
{8}4,,1,7,5,8,1,6,
{8}5,7,,8,2,4,1,8,
{8}3,4,2,8,1,7,5,8,
{8}1,6,5,7,1,,2b/7b,,
{8},,4/5,4/5,,1/8,1/8,,
{4}2/7,4/5,2b/7b,
E
MASTER
(222){2}
1-5[4:1],,5^8[4:1],1,8-4[4:1],,4^1[4:1],8,
1-5[4:1],,5^8[4:1],1,8-4[4:1],,4^1[4:1],8,
{1}1^4[4:1]/5p8[4:1],4q1[4:1]/8^5[4:1],1^4[4:1]/5p8[4:1],4q1[4:1]/8^5[4:1],
{4}5p8[4:1]/1,2,3,4,4q1[4:1]/8,7,6,5,
{8}1,5,2,6,3,7,2,8,{16}1,8,1,8,1,8,1,8,1,8,7,6,5,4,3,2,
{8}
1b/8b,,,,36,45,,45,6,45,3,45,3b/6b,,
4-1[16:1]/8-5[16:1],,,,6,2,4,3,5,{16}4,4,{8}5,2,8,3,7,1,
8,7,6-2[16:1],5,,,1,2,3-7[16:1],4,,,18,18,2,18,7,18,2b/7b,,
1,2,3,4,5,6,7,8,{16}1,2,3,4,5,6,7,8,1,2,3,4,5,6,7,8,
{8}
1,7,2,8,1,7,2,{16}8,8,{8}1,7,2,8,1b/7b,,
5,{16}3,3,{8}6,4,5,3,{16}6,6,{8}4,5,3,6,4,8h[8:1],2h[8:1],4h[8:1],6,
7,1,6,8,7,1,6,{16}8,8,{8}7,1,6,8,1b/7b,,
3,{16}5,5,{8}2,4,3,5,{16}2,2,{8}4,3,5,2,4,8,8,8,8,{16}1,2,3,4,
{8}
8,2,7,1,8,2,7,{16}1,1,{8}8,2,7,1,2b/8b,,
4,{16}6,6,{8}3,5,4,6,{16}3,3,{8}5,4,6,3,5,1h[8:1],7h[8:1],5h[8:1],3,
2,8,3,1,2,8,3,{16}1,1,{8}2,8,3,1,2b/8b,,
6,{16}4,4,{8}7,5,6,4,{16}7,7,{8}5,6,4,7,5,1,1,1,1,{16}8,7,6,5,
{8}
1h[8:7],3,,3,,3,,3,8h[8:7],6,,6,,6,,6,
4h[8:5],2,,2,,2h[4:1],,4,5h[8:5],7,,7,,7h[4:1],,5,
2h[8:3],4,,4h[4:1],,2h[4:1],,4,7h[8:3],5,,5h[4:1],,7h[4:1],,5h[4:1],
3,3h[4:1],,1h[4:1],,3h[4:1],,1h[4:1],6,8h[4:1],,6h[4:1],,8h[8:1],
4-8[8:1],,,,,,6-1[8:1],,,,,3-8[8:1],,,5-1[8:1],,,,,,4-1[8:1],,,,,,
{16}8-4[8:1],8,8,8,{8},,
5-1[8:1],,,,,,3-8[8:1],,,,,6-1[8:1],,,4-8[8:1],,,,,,5-8[8:1],,,,,,
{16}2,7,2,7,
{8}
1,1,8,8,1,1,8,8,1,1,
28,7,17,2,
5,5,2,2,3,3,2,2,
35,4,46,5,35,4,
5,5,3,3,7,7,
46,5,35,4,
5,5,4,4,5,5,
46,5,35,4,46,5,
6,6,1,1,8,8,1,1,8,8,
17,2,28,7,
6,6,7,7,4,4,7,7,
46,5,35,4,46,5,
4,4,6,6,2,2,
35,4,46,5,
6,6,3,3,7,7,
{16}1,8,1,8,1,8,7,6,5,4,3,2,
{8}
1b/8b,,,,36,45,,35,2,46,7,45,3b/6b,,
1-4[16:1]/5-8[16:1],,,,6,2,4,3,7,{16}4,4,{8}5,6,3,7,7,1,
8,7,6-2[16:1],5,,,1,2,3-7[16:1],4,,,28,3,17,6,8,1,2b/7b,,
1,2,3,4,5,6,7,8,{16}1,2,3,4,5,6,7,8,1,2,3,4,5,6-3[16:1],7-2[8:1],,
{2},8-4[16:1],2-4[16:1]/6-8[16:1],7-3[16:1]/8-2[16:1],,
7-2[16:1]/8h[16:9],{16},1q5[16:1],,,{2},,{8}1v6[4:1],,,1v4[4:1],{2},,,{4},
8-2[16:1],7-3[16:1],6-4[16:1],1-5[16:1],3b,,,,,,,,,,,,
7^2[4:1],2-6[4:1],6-3[4:1],,{8}1,8,7,6,5,4,3,2,1,8,7,6,5,4,3,2,
{16}1,8,7,6,5,4,3,2,{2}1b/8b,
{8}
1,1,8,8,1,1,7,7,
8-6[8:1],1,8-4[8:1],1,8,1,1,1,4,4,3,3,
7-5[8:1],2,7-1[8:1],2,7-4[8:1],2,7,2,2,2,7,7,
1-3[8:1],8,1-5[8:1],8,1,8,6,6,4,4,
2-4[8:1],7,2-8[8:1],7,2-5[8:1],7,2,7,7,7,1,1,8,8,1,1,
8-6[8:1],1,8-4[8:1],1,8,1,1,1,4,4,3,3,
7-5[8:1],2,7-1[8:1],2,7-4[8:1],2,7,3,3,3,7,7,
1-3[8:1],8,1-5[8:1],8,1,6,6,6,4,4,
2-4[8:1],7,2-8[8:1],7,2-5[8:1],7,2,7,7,7,1,1,
8-6[8:1],2,8-3[8:1],2,8-5[8:1],2,8,2,
2-6[8:1],7,2-4[8:1],7,2-5[8:1],7,2,7,
7-3[8:1],2,7-5[8:1],2,7-4[8:1],2,7,2,
1-3[8:1],7,1-6[8:1],7,1-4[8:1],7,1,7,7,7,1,1,6,6,
{24}1,8,7,6,5,4,3,2,1,8,7,6,5,4,3,2,1,8,7,6,5,4,3,2,
{8}1b/8b,,,,36,45,,45,56,45,34,45,2-5[8:1]/7-4[8:1],,2b/7b,,
最終更新:2022年08月19日 13:43