だんだん早くなる(創作譜面:Portablehouse)

曲名 だんだん早くなる
制作者名 Portablehouse
音源
譜面動画
制作者コメント 初投稿です。
BGM変化ガバガバなので、調べて今度直します。
BPM EASY BASIC ADVANCED EXPERT MASTER
90 - 160 2 - - - 10

EASY


BASIC


ADVANCED


EXPERT


MASTER

(184){4}6-3[2:1]/7-2[2:1],6b/7b,,,{8}2,6,2,,35,,46,,
(196){8},,2,6,2,,6,,{4}1,1h[4:1],,1,
(206){4}6-3[2:1]/7-2[2:1],6b/7b,,,{8}7,3,7,,46,,35,,
(216){8},,7,3,7,,3,,{4}2,2h[4:1],,2,
(216){4}6-3[2:1]/7-2[2:1],6b/7b,,,{8}1,6,1,,25,,47,,
(228){8},,1,6,1,,6,,{4}3,3h[4:1],,3,
(238){4}6-3[2:1]/7-2[2:1],6b/7b,,,{8}8,3,8,,47,,25,,
(248){8},,8,3,8,,3,,{4}4,4h[4:1],,4,

(124){8},1,,2,,3,,4,
,5,,6,27,,18,,
,8,,7,,6,,5,
,4,,3,27,,18,{16},{64},

(126){16},,2,1,2,,7,8,{8}7,36,27,36,
{16},,3,4,3,,6,5,{8}6,4-1[8:1]/5-8[8:1],45,,
{16},,3,4,3,,6,5,{8}6,27,36,27,
{16},,2,1,2,,7,8,{8}7,1-4[8:1]/8-5[8:1],18,,
{8}4p7[8:1],7<3[8:1],3-8[8:1],8p4[8:1],4v6[8:1],6q2[8:1],2q1[8:1],,
{8},5p1[4:1],5,5,5,6,7,8,
{2}1h[4:3],{8},,,2,
{4}2p5[2:1],3,4,5,

(252)6-3[2:1]/7-2[2:1],6b/7b,,,{8}1,5,1,,34,,56,,
(254){8},,1,5,1,,5,,{4}5,5h[4:1],,5,
(262)6-3[2:1]/7-2[2:1],6b/7b,,,{8}8,4,8,,56,,34,,
(264){8},,8,4,8,,4,,{4}6,6h[4:1],,6,
(264)6-3[2:1]/7-2[2:1],6b/7b,,,{8}1,7,1,,24,,57,,
(268){8},,1,7,1,,7,,{4}7,7h[4:1],,7,
(276)6-3[2:1]/7-2[2:1],6b/7b,,,{8}8,2,8,,57,,24,,
(280){8},,8,2,8,,2,,{4}8,8h[4:1],,8,

(142){8},1,,2,,3,,4,
,5,,6,27,,18,,
,8,,7,,6,,5,
,4,,3,27,,18,,

(142){16},,1,2,1,,8,7,{8}8,36,27,36,
{16},,4,3,4,,5,6,{8}5,4-1[8:1]/5-8[8:1],45,,
{16},,4,3,4,,5,6,{8}5,27,36,27,
{16},,1,2,1,,8,7,{8}8,1-4[8:1]/8-5[8:1],18,,
{8}5q2[8:1],2>6[8:1],6-1[8:1],1q5[8:1],5v3[8:1],3p7[8:1],7p8[8:1],,
{8},4q8[4:1],4,4,4,3,2,1,
{2}8h[4:3],{8},,,7,
{4}7q4[2:1],6,5,4,

(280){4}3-6[2:1]/2-7[2:1],2b/3b,,,{8}8,2,8,,57,,24,,
(260){8},,8,2,8,,2,,{4}8,8h[4:1],,8,
(250){4}3-6[2:1]/2-7[2:1],2b/3b,,,{8}8,4,8,,56,,34,,
(234){8},,8,4,8,,4,,{4}6,6h[4:1],,6,
(224){4}3-6[2:1]/2-7[2:1],2b/3b,,,{8}1,6,1,,25,,47,,
(212){8},,1,6,1,,6,,{4}3,3h[4:1],,3,
(200){4}3-6[2:1]/2-7[2:1],2b/3b,,,{8}2,6,2,,35,,46,,
(184){8},,2,6,2,,6,,{4}1,1h[4:1],,1,

(90){4}4,4,4,4,
(122)2,2,2,1b,

(264){4}6-3[2:1]/7-2[2:1],6b/7b,,,{8}2,6,2,,35,,46,,
(268){8},,2,6,2,,6,,{4}1,1h[4:1],,1,
(268){4}6-3[2:1]/7-2[2:1],6b/7b,,,{8}1,6,1,,25,,47,,
(284){8},,1,6,1,,6,,{4}3,3h[4:1],,3,
(280){4}6-3[2:1]/7-2[2:1],6b/7b,,,{8}8,4,8,,56,,34,,
(292){8},,8,4,8,,4,,{4}6,6h[4:1],,6,
(312){4}6-3[2:1]/7-2[2:1],6b/7b,,,{8}8,2,8,,57,,24,,
(312){8},,8,2,8,,2,,{4}8,8h[4:1],,8,

(160){8},1,,2,,3,,4,
,5,,6,27,,18,,
,8,,7,,6,,5,
,4,,3,27,,18,,

(160){16}1,8,2,7,3,6,4,5,3,6,2,7,1b,,,,
8,1,7,2,6,3,5,4,6,3,7,2,8b,,,,
4,5,4,5,3,6,3,6,2,7,2,7,1b,,,,
5,4,5,4,6,3,6,3,(120)7,2,8,1,8h[8:1],,,,

(232){4}3-6[2:1]/2-7[2:1],2b/3b,,,{8}1,7,1,,24,,57,,
(228){8},,1,7,1,,7,,{4}7,7h[4:1],,7,
(220){4}3-6[2:1]/2-7[2:1],2b/3b,,,{8}7,3,7,,46,,35,,
(208){8},,7,3,7,,3,,{4}2,2h[4:1],,3q3[2:5],

名前:
コメント:

タグ:

+ タグ編集
  • タグ:

このサイトはreCAPTCHAによって保護されており、Googleの プライバシーポリシー利用規約 が適用されます。

最終更新:2015年03月17日 22:19