Cosmic Magic Shooter

BPM EASY BASIC ADVANCED EXPERT MASTER Re:MASTER
163 3 5 7 10+ 13 -

EXPERT MASTER Re:MASTER
譜面制作者 mai-star mai-star -

EASY


BASIC

(163.0){1},
{1}1,,
{1}1,,
{1}8,,
{1}8,,
{4}1,1,,,
{4}8,8,,,
{4}1,1,,,
{4}8,8,,,
{4}1,1,,,
{4}2,2,,,
{4}3,3,,,
{4}4,4,,,
{2}5,6,
{2}7,8,
{2}8,7,
{2}6,5,
{2}4,3,
{1}2h[2:1],
{1}1-5[2:1],,
{4}1,1,,,
{4}3,3,,,
{4}5,5,,,
{4}7,7,7,,
{4}8,8,,,
{4}6,6,,,
{4}4,4,,,
{4}2,2,2b,,
{1}8h[2:1],
{1}1h[2:1],
{1}2h[2:1],
{1}3h[2:1],
{4}4,4,5,,
{4}5,5,6,,
{2}7,8,
{4}1,8,1/8,,
{1}1h[2:1],
{1}7h[2:1],
{1}8h[2:1],
{4}2,2,2,,
{1}3h[2:1],
{1}5h[2:1],
{1}4h[2:1],
{4}6,6,6b,,
{2}7,8,
{4}1,1,1,,
{2}2,1,
{4}8,8,8,,
{4}1,1,1/8,,
{4}8,8,1/8,,
{4}2,1,8,,
{4}7,8,1b,,
{2}2,4,
{4}6,6,6,,
{2}7,5,
{4}3,3,3b,,
{1}2-5[2:1],
{1}7-4[2:1],
{2}3,2,
{1}1/8,
{2}1,2,
{2}3,4,
{2}5,6,
{2}7,8,
{2}8,7,
{2}6,5,
{2}4,3,
{2}2,{4}1-5[2:1],,,,
E

ADVANCED

(163.0){1},
{2}1,1,
{4}8,8,,,
{2}7,7,
{4}2,2,,,
{2}3,3,
{4}6,6,,,
{2}5,5,
{4}4,4,,,
{4}4,5,3,6,
{4}2,7,1,8,
{4}1,2,3,4,
{4}8,7,6,5,
{4}3,3,4,3,
{4}6,6,5,6,
{4}3,4,4,3,
{4}6,5,5,6b,
{4}2,1,8,7,
{4}3,4,5,6,
{4}3,2,1,8,
{4}6,7,8,1,
{4}4,5,3/6,4/5,
{2}1h[2:1],8b,
{1}1h[8:3]/8h[8:3],
{1}1-4[8:3]/8-5[8:3],
{4}3,4,3,4,
{4}8,7,8,7,
{4}2,1,2,1,
{4}3,6,2/7,1/8,
{4}1,2,3,4,
{4}5,6,7,8,
{2}1-5[4:1],8-4[4:1],
{4}1,8,2/7,1b/8b,
{4}3,3,3h[4:1],4,
{4}6,6,6h[4:1],5,
{4}3,4,5h[4:1],6,
{4}6,5,4h[4:1],3,
{4}2,2,1/2,2,
{4}7,7,7/8,7,
{4}1,8,2/7,1/8,
{4}1/8,2/7,3/6,,
{1}1q4[4:3],
{1}8^5[2:1],
{1}4^1[2:1],
{4}1/8,1/8,1b/8b,,
{1}8p5[4:3],
{1}1^4[2:1],
{1}5^8[2:1],
{1}1h[8:3]/8h[8:3],
{4}3,4,2/5,3/4,
{4}6,5,4/7,5/6,
{4}1,8,2/7,4/5,
{2}3-8[4:1],6-1[4:1],
{4}2,3,4,5/6,
{4}7,6,5,3/4,
{4}1/2,7/8,5/6,3/4,
{1}2q5[2:1],
{4}7/8,7-4[4:1]/8-3[4:1],,,
{4}1/2,1-6[4:1]/2-5[4:1],,,
{4}4,5,2,7,
{4}3/6,1-4[4:1]/8-5[4:1],,,
{4}2/3,3/4,4/5,,
{4}6/7,5/6,4/5,,
{4}7,8,1,2,
{1}7p4[2:1],
{4}6,5,6,5,
{4}1,2,1,2,
{4}7,8,7,8,
{4}6,3,2/7,1/8,
{4}8,7,6,5,
{4}4,3,2,1,
{2}8-4[4:1],1-5[4:1],
{8}8,,1,,2/7,,1/8,1b/8b,
E

EXPERT

(163.0){1},
{2}1h[2:1],5h[2:1],
{4}1,3h[2:1]/7h[2:1],,,
{2}8h[2:1],4h[2:1],
{4}8,2h[2:1]/6h[2:1],,,
{2}1h[4:1]/8h[4:1],2/7,
{1}1-3[16:3]/8-6[16:3],
{2}4h[4:1]/5h[4:1],3/6,
{1}4-2[16:3]/5-7[16:3],
{4}3,3,3,3/4,
{4}3,7/8,6,1/2,
{4}6,6,6,5/6,
{4}6,1/2,3,7/8,
{4}3,2/4,3,2/4,
{4}1/2,3/4,5/6,7/8,
{4}6,5/7,6,5/7,
{4}7/8,5/6,3/4,1b/2b,
{8}3h[8:3],,,4,,,2/7,,
{8}6h[8:3],,,5,,2,7,,
{8}3h[8:3],,,6,,,1/8,,
{8}6h[8:3],,,3,,,1/8,,
{8}1,8,2,7,3,6,4,5,
{16}1/8,,,2/7,,,3/6,,8/1-5[8:1],,,,,,,,
{8}7h[8:3],,,1h[8:3],,,8-4[8:1],,
{4},1,6^8[8:1],,
{8}1,,8,,3/4,3/4,,8,
{8},1,8,,5/6,5/6,,1,
{8},8,1,,4/5,4/5,,1h[8:3]/8h[8:3],
{2},2v5[8:1]/7v4[8:1],
{8}4h[4:1],,5h[4:1],,2,1/2,,5h[4:1],
{8},4,5,,7,7/8,,4h[4:1],
{8},5,4,,1/8,1/8,,,
{16}1,8,1,,6,,6,,,,3,,3b,,,,
{8}3h[4:1],,8,,2,1,,6h[4:1],
{8},1,1,,7,8,,2h[4:1],
{8},8,1,,8,1,,7h[4:1],
{8},1,8,1,8^2[8:1],,,,
{8}2h[4:1],,5h[4:1],,3,4,,7h[4:1],
{8},4,4h[4:1],,6,5,,7h[4:1],
{8},1,2h[4:1],,8,7h[4:1],,1h[4:1],
{16},,8,,8,,,,1,8,1,,2/7,,,,
{4}8h[4:1],6h[4:1],4h[4:1],2,
{4}6h[4:1],5h[4:1],1h[4:1],5,
{4}1h[4:1],3h[4:1],5h[4:1],7,
{4}8/3h[4:1],4h[4:1],8b,8b,
{4}6h[4:1],5h[4:1],4h[4:1],3,
{4}1/6h[4:1],3h[4:1],8,1b/8b,
{8}2,1,2,7,8,7,,,
{4}3-5[8:1],2-6[8:1],1-7[8:1],,
{8}8,1/7,2/6,,4,3/5,,1h[4:1],
{16},,8,,2/7,,3/6,,4,5,4,,,,5/6,,
{8},3/8,3/8,1/2,3/8,4/7,5h[4:1]/6h[4:1],,
{4},1/8,5-1[8:1]/6-8[8:1],,
{8}1,2/8,3/7,,5,4/6,,8h[4:1],
{16},,1,,2/7,,3/6,,5,4,5,,,,2/7,,
{8},1/8,1/8,1/8,2-5[8:1],7-4[8:1],,,
{8},,1-5[8:1]/8-4[8:1],,,,2/7,1/8h[1:1],
{8},1,2,3,4,3,2,1h[4:1],
{8},8,7,6,5/6,5/6,,3,
{8}8,1,5,4,7,2,6,4h[8:3]/8h[8:3],
{2},1-5[8:1],
{8}6h[4:1],5,1h[4:1],,3,3,8,8h[4:1],
{16},,6,,6,,,,1,8,1,,,,1,,
{8}5,3,7,1h[8:3],,8,8,,
{4}2/7,1/8,3/6,1b/8b,
{8}8,,1,,5/6,5/6,,1,
{8},8,1,,3/4,3/4,,8,
{8},1,8,,4/5,4/5,,1h[8:3]/8h[8:3],
{2},2v5[8:1]/7v4[8:1],
{8}5h[4:1],,4h[4:1],,7,7/8,,4h[4:1],
{8},5,4,,2,1/2,,7,
{8}8,6,1,5h[4:1],,2,1,3,
{8},,5/6,,3/4,,2/7,1b/8b,
E

MASTER

(163){8}
38,,1-6[8:1]/2-6[8:1],,12,,1,8,,8,1,,27,,18,,
16,,7-3[8:1]/8-3[8:1],,78,,8,1,,1,8,,27,,18,,
12,,3-1[8:1]/8-4[8:1],,38,,3,6,,5,4,,4-1[8:1]/5-8[8:1],,45,,
78,,1-5[8:1]/6-8[8:1],,16,,6,3,,4,5,,4v2[8:1]/5v7[8:1],,45,,

1,2,3h[8:5],2,1,8,7,6h[8:3],,5,5h[4:1],4,4h[4:1],3,3,,
8,7,6h[8:5],7,8,1,2,3h[8:3],,4,4h[4:1],5,5h[4:1],6,6,,
4,3,2h[8:5],3,4,5,6,7h[8:3],,8,8h[4:1],1,1h[4:1],2,2,,
5,6,7h[8:5],6,5,4,3,2h[8:3],,1,1h[4:1],8,8h[4:1],7,7,,

1,2,37,7,6,15,1,27,8,7,26,2,3,48,26,26,
4,3,26,6,7,48,4,36,5,6,37,3,2,15,37,37,
26,48,26,48,15,37,26,48,
{16}1/2h[16:3],,,5h[16:3],,,6,,{8}8-4[16:1],,8b,,
1/2h[4:3],8,7,6,,5,4-8[16:1],,4/2-6[16:1],,2b/8-4[16:1],,8b/1-5[16:1],,1b,,

{16}
2-6[16:1],,1,,8h[4:1],,,,4,,8-4[16:1],,,,8,,
,,1-5[16:1],,7-3[16:1],,1,,7,,,2,,,1-5[16:1]/8-4[16:1],,
,,18,,,,18,,27,,3v1[16:1]/6v8[16:1],,,,36,,
,,2,,7,,,,3v5[16:1]/4v6[16:1],,,,34,,,,
7-3[16:1],,8,,1h[4:1],,,,5,,1-5[16:1],,,,1,,
,,8-4[16:1],,2-6[16:1],,8,,2,,,7,,,36,,
,,12,,56,,78,,34,,,27,,,,,
1,8,2,7,1,,8-4[8:1],,,,8,,1b,,,,

2-5[16:1]/6-1[16:1],,,,26,,,,48,37,26,,,,1-6[16:1]/5-2[16:1],,
,,15,,,,48,,15,26,37,,,,2^7[16:1]/6q3[16:1],,
,,26,,,,27,,18,27,36,,,,4-1[16:1]/5-8[16:1],,
,,45,,,,27,,1v3[16:1]/8v6[16:1],,,,18,,,,
57,,46,,35,,,,1,28,37,,5,,4-8[16:1]/6,,
,,4,,,,17,,8,17,26,,1,,8-5[16:1],,
,,8/4-1[16:1],,,,4,,7,3,5,,4,,4-7[16:1]/5-7[16:1],,
,,45,,,,18,,1-3[16:1]/8-3[16:1],,,,1b/8b,,,,

{4}
1^4[8:1],1/5^8[8:1],5/4p5[8:1],4,
8^5[8:1],8/4^1[8:1],4/5q4[8:1],5,
1v3[8:1],1/5v7[8:1],5/3v5[8:1],3,
1q5[8:1]/5q1[8:1],1^7[16:1]/5^3[16:1],1b/5b,37,

4^1[8:1]/8q5[8:1],48,1p4[8:1]/5^8[8:1],15,
2-4[16:1]/6-8[16:1],2-5[16:1]/6-1[16:1],2-7[16:1]/6-3[16:1],,
{8}1-5[16:1]/2-5[16:1],12,,7-4[16:1]/8-4[16:1],78,,,8,
{4}8-4[16:1],8/2-6[16:1],2/7-3[16:1],7b,

{16}
2q6[8:1]/6q2[8:1],,26,,26,,,,51,48,37,,,,3-7[8:1]/7,,
,,1,,5,,1,,2v3[16:1]/7v6[16:1],,,2b/7b,,,18,,
,,1^3[16:1],,5^7[16:1],,1-5[16:1],,5-1[16:1],,,,,,,,
2-5[16:1]/8-5[16:1],,,,2^4[16:1]/8^6[16:1],,,,2-5[16:1]/8-5[16:1],,,,,,,,
3p7[8:1]/7p3[8:1],,37,,37,,,,84,15,26,,37,,15,,
,,78,,34,,78,,3-8[16:1],,,3b,,,7-3[16:1],,
,,7/2-5[16:1],,2,,2,,7,,68,,15,,24,,
3-7[16:1],,7,,3,,,,5-1[16:1],,1,,5,,3h[4:1],,
,,1-5[16:1],,1,,7-3[16:1],,7,,2-6[16:1],,2,,8-4[16:1],,
,,8,,5,,5,,28,37,46,,,,12,,
56,,12,,78,,34,,78,,24,,57,,1b/8b,,
,,18,,45,,,,3-8[16:1]/5-8[16:1],,,,35,,,,
1-4[16:1]/7-4[16:1],,26,,17,,,,35,26,17,,8,,8h[4:1],,
,,4-7[16:1],,4,,4,,8-3[16:1],,,8b,,,2-6[16:1],,
7-3[16:1],,2,,7,,1,,,,27,,1v6[16:1]/8,,,,
1/8v3[16:1],,,,8b/2-6[16:1],,,,2b/7-3[16:1],,,,7b,,,,

1v4[16:1]/5v8[16:1],,37,,15,,,,26,,4/8-4[16:1],,,,8/2-6[16:1],,
,,2,,8,,4,,4-1[16:1]/8-5[16:1],,,48,,,26,,
,,48,,15,,,,23,,67,,,,27,,
1,8,1,8,1,8,1,8,2-5[16:1]/7-4[16:1],,,,2b/7b,,,,
4v1[16:1]/8v5[16:1],,26,,48,,,,37,,1-5[16:1]/5,,,,1/7-3[16:1],,
,,7,,1,,5,,1-4[16:1]/5-8[16:1],,,15,,,37,26,
{8}15,7,3,5,,1s5[4:1],37,,,,26,,4p5[8:1]/8-5[8:1],26,48,,


名前:
コメント:

タグ:

+ タグ編集
  • タグ:

このサイトはreCAPTCHAによって保護されており、Googleの プライバシーポリシー利用規約 が適用されます。

最終更新:2022年08月06日 07:56