ケロ⑨destiny

アーティスト Silver Forest

BPM EASY BASIC ADVANCED EXPERT MASTER
172 2 4 6 10+ 12+

EASY


BASIC

(172.0){1},,,,
{2}1,1,
{2}2,2,
{2}3,3,
{1}4,
{2}4,4,
{4}4,4,4,,
{2}3,3,
{4}3,3,3,,
{2}2,2,
{4}2,2,2,,
{2}1,1,
{4}1,1,1b,,
{2}8,8,
{4}8,8,8,,
{2}7,7,
{4}7,7,7,,
{2}6,6,
{4}6,6,6,,
{2}5,5,
{4}5,5,5b,,
{1}4h[2:1],
{1}5h[2:1],
{1}4h[2:1],
{1}5h[2:1],
{1}6h[2:1],
{1}7h[2:1],
{1}8h[2:1],
{1}1b,
{4}8,8,8,,
{4}7,7,7,,
{2}8,7,
{1}7/8,
{4}5,5,5,,
{4}6,6,6,,
{2}5,6,
{1}5/6,
{4}3,3,3,,
{4}4,4,4,,
{2}3,4,
{1}3/4,
{4}1,1,1,,
{4}2,2,2,,
{2}1,2,
{1}1/2,
{2}1,2,
{2}3,4,
{2}5,6,
{2}7,8,
{1}1b,,,
{2}2,3,
{2}4,5,
{2}6,7,
{1}1/8,
{4}1,1,1,,
{4}2,2,2,,
{4}4,4,3,3,
{1}3/4,
{4}8,8,8,,
{4}7,7,7,,
{4}5,5,6,6,
{1}5/6,
{4}4,4,4,,
{4}3,3,3,,
{4}1,1,2,2,
{1}1/2,
{4}5,5,5,,
{4}6,6,6,,
{4}8,8,7,7,
{1}7/8,
{1}8-5[4:5],,,
{2}4,3,
{4}2,2,1/2,,
{2}8,7,
{4}6,6,5/6,,
{2}3,2,
{4}1,1,8,8,
{1}1/8,
E

ADVANCED

(172.0){1},,,,
{2}1,2,
{2}3,4,
{2}5,6,
{2}7,8,
{2}1,1,
{4}2,2,2,,
{2}3,3,
{4}4,4,4,,
{2}5,5,
{4}6,6,7,7,
{4}8,8,8,,
{4}1,1,1/8,,
{2}8,8,
{4}7,7,7,,
{2}6,6,
{4}5,5,5,,
{2}4,4,
{4}3,3,2,2,
{4}1,1,1,,
{1}1b/8b,
{2}2h[2:1],1,
{2}7h[2:1],8,
{2}3h[2:1],4,
{2}6h[2:1],5,
{2}2h[2:1],1,
{2}7h[2:1],8,
{2}3h[2:1],4,
{2}6h[2:1],5b,
{4}4,4,4,,
{4}3,3,3,,
{4}2,2,1,1-4[2:1],{1},
{4}5,5,5,,
{4}6,6,6,,
{4}7,7,8,8-5[2:1],{1},
{4}3,3,3,,
{4}4,4,4,,
{4}5,5,6,6-3[2:1],{1},
{4}2,2,2,,
{4}1,1,1,,
{4}8,8,7,7-2[2:1],{1},
{4}1,2,3,4,
{4}5,6,7/8,,
{4}8,7,6,5,
{4}4,3,1/2,,
{1}1b/8b,,,
{4}1,1,2,2,
{4}3,3,4,4,
{4}5,5,6,6,
{4}7,7,8b,,
{4}1,2,3,,
{4}4,3,2,,
{4}1,2,3,4^1[2:1],{1},
{4}8,7,6,,
{4}5,6,7,,
{4}8,7,6,5^8[2:1],{1},
{4}1,3,2,,
{4}4,2,3,,
{4}1,2,3,4q1[2:1],{1},
{4}8,6,7,,
{4}5,7,6,,
{4}8,7,6,5p8[2:1],{1},
{4}1,2,3,4,
{1}5q8[4:5],,
{4}1,2,3,4,
{1}5h[2:1],
{4}3,4,3,,
{4}6,5,6,,
{4}4,3,2,1,
{1}8h[2:1],
{1}1>8[4:7],,,
E

EXPERT

(172.0){2}8h[2:1],6h[2:1],
{2}4h[2:1],2h[2:1],
{4}1h[4:1],2h[4:1],3h[4:1],4h[4:1],
{4}5h[4:1],6h[4:1],7h[4:1],8,
{4}8h[4:1],7h[4:1],6h[4:1],5,
{4}1h[4:1],2h[4:1],3h[4:1],4,
{4}8h[4:1],7h[4:1],6h[4:1],5,
{4}1h[4:1],2h[4:1],3h[4:1],4,
{4}7h[4:1],6,2h[4:1],3q4[2:1],
{4},,,5/6,
{4}1h[4:1],2,8h[4:1],7<2[2:1],
{4},,,1/2,
{4}6h[4:1],5,3h[4:1],4,
{4}7h[4:1],8,2h[4:1],1,
{4}7h[4:1],6q3[4:1],,,
{4}5h[4:1],4,2b/7b,,
{4}5/6h[4:1],2,4/3h[4:1],7,
{4}6/7h[4:1],1,3/2h[4:1],8,
{2}4-8[4:1],5-1[4:1],
{1}4s8[2:1],
{4}4/3h[4:1],7,5/6h[4:1],2,
{4}3/2h[4:1],8,6/7h[4:1],1,
{4}1/2h[4:1],5,8/7h[4:1],4p5[2:1],
{8},,,,,8b,8b,,
{16}7h[16:3],,,6h[16:3],,,5,,2h[16:3],,,3h[16:3],,,4,,
{16}7h[16:3],,,6h[16:3],,,5,,2h[16:3],,,3h[16:3],,,4,,
{16}8h[16:3],,,7h[16:3],,,6,,1h[16:3],,,2h[16:3],,,3,,
{1}4^1[8:3]/5^8[8:3],
{16}2h[16:3],,,3h[16:3],,,4,,7h[16:3],,,6h[16:3],,,5,,
{16}2h[16:3],,,3h[16:3],,,4,,7h[16:3],,,6h[16:3],,,5,,
{16}1h[16:3],,,2h[16:3],,,3,,8h[16:3],,,7h[16:3],,,6<5[2:1],,
{4},,,2b/7b,
{16}4h[16:3],,,5h[16:3],,,6,,6,,,,2/8,,,,
{16}4h[16:3],,,3h[16:3],,,2,,2,,8h[4:1],,,,1,,
{16}6h[16:3],,,7h[16:3],,,8,,3h[16:3],,,2h[16:3],,,1,,
{8}1>6[4:1],,,,,8,8,,
{16}5h[16:3],,,4h[16:3],,,3,,3,,,,1/7,,,,
{16}5h[16:3],,,6h[16:3],,,7,,7,,1h[4:1],,,,8,,
{16}3h[16:3],,,2h[16:3],,,1,,6h[16:3],,,7h[16:3],,,8,,
{8}1/7,,2/8,,,2b/7b,2b/7b,,
{16}1h[16:3],,,8h[16:3],,,7,,7,,,,3/5,,,,
{16}1h[16:3],,,2h[16:3],,,3,,3,,8h[4:1],,,,1,,
{16}1h[16:3],,,2h[16:3],,,3,,8h[16:3],,,7h[16:3],,,6,,
{8}6>1[4:1],,,,,8,8,,
{16}8h[16:3],,,1h[16:3],,,2,,2,,,,4/6,,,,
{16}8h[16:3],,,7h[16:3],,,6,,6,,1h[4:1],,,,8,,
{16}8h[16:3],,,7h[16:3],,,6,,1h[16:3],,,2h[16:3],,,3,,
{8}2/8,,1/7,,,2b/7b,2b/7b,,
{4}8,7,6,5,
{4}4,3,1/2,,
{4}1,2,3,4,
{4}5,6,7/8,,
{1}4b/8b,,,
{4}8h[4:1],1h[4:1],3h[4:1],4h[4:1],
{4}1h[4:1],8h[4:1],6h[4:1],5h[4:1],
{4}8h[4:1],1h[4:1],3h[4:1],4q5[2:1],
{4},,,2b/7b,
{16}4h[16:3],,,5h[16:3],,,6,,6,,,,3/8,,,,
{16}4h[16:3],,,3h[16:3],,,2,,2,,3/5,,,,2/4,,
{2}1-5[4:1],8-4[4:1],
{8}1-5[4:1],,,,,8,8,,
{16}5h[16:3],,,4h[16:3],,,3,,3,,,,1/6,,,,
{16}5h[16:3],,,6h[16:3],,,7,,7,,3/5,,,,4/6,,
{16}3h[16:3],,,2h[16:3],,,1,,6h[16:3],,,7h[16:3],,,8,,
{8}1/7,,2/8,,,2b/7b,2b/7b,,
{16}1h[16:3],,,8h[16:3],,,7,,7,,,,2/5,,,,
{16}1h[16:3],,,2h[16:3],,,3,,3,,1/7,,,,2/8,,
{2}7-2[4:1],3q6[2:1],
{8},,,,,1,1,,
{16}8h[16:3],,,1h[16:3],,,2,,2,,,,4/7,,,,
{16}8h[16:3],,,7h[16:3],,,6,,6,,2/8,,,,1/7,,
{16}6h[16:3],,,7h[16:3],,,8,,3h[16:3],,,2h[16:3],,,1,,
{8}2/8,,1/7,,,2b/7b,2b/7b,,
{2}8h[4:3],1h[4:1],
{8}2b/7b,,,,,7,8,7,
{8},3/5,,4/6,,1/2,,1/2,
{8},3/5,,4/6,,3/5,,4/6,
{8}7h[2:1],,8h[4:1],,,1b/6b,1b/6b,,
{8}7,7,,3/5,,2,1,2,
{8},4/6,,3/5,,7/8,,7/8,
{8},4/6,,3/5,,4/6,,3/5,
{8}2h[2:1],,1h[4:1],,,3b/8b,3b/8b,
E

MASTER

(172){4}1h[2:1],2,3h[2:1],4,5h[2:1],6,7h[2:1],8,
{8}1,1,7,7,3,3,5,5,4,4,6,6,2,2,8,8,
{4}
1-5[16:1],8-4[16:1],2-5[16:1],7-4[16:1],1-5[16:1],8-4[16:1],2-5[16:1],7-4[16:1],
1-5[16:1],2-6[16:1],3-7[16:1],4-8[16:1],5-1[16:1],6-2[16:1],7-3[16:1],8b,

{8}
1h[8:3],,,3,3h[8:3],,,5,{16}7,,,8,,,1,,{8}24,,6,5,
4h[8:3],,,2,{16}2h[16:3],,,1,,,8,,{8}1^4[16:1]/6^1[16:1],,,,27,,1,8,
7h[8:3],,,5,{16}5h[16:3],,,4,,,3,,12,,,38,,,47,,78,,,16,,,25,,
3/4h[4:1],,,,6h[4:1],,,,7,,,1,,,8,,{4}37,1^4[16:1]/5-8[16:1],15,,
{8}2/3^6[8:1],,,7,7^4[8:1]/8,,,2,{16}12,,,4,,,5,,{8}78,,6,5,
4p7[8:1],,,5,{16}6q2[8:1],,,5,,,4,,{8}3>6[4:1],,,,1,,8,1,
2q6[8:1],,,1,8p3[8:1],8,,2,{16}12,,,38,,,47,,78,,,16,,,25,,
34,,,,46,,,,35,,,47,,,26,,{8}4^1[8:1]/8-5[8:1],,,,,8b,8b,,

{16}
3h[16:3],,,4,,,25,,6h[16:3],,,5,,,47,,2h[16:3],,,1,,,38,,17,,,28,,,17,,
3h[16:3],,,1,,,25,,6h[16:3],,,8,,,47,,1,2,3,4,5,6,7,8,1,2,3,4,56,,,,
7h[16:3],,,8,,,16,,2h[16:3],,,1,,,38,,6h[16:3],,,5,,,47,,16,,,38,,,16,,
4h[16:3],,,8,,,26,,5h[16:3],,,1,,,37,,5,6,7,8,1,2,3,4,5,6,7,8,1b,,,,

2-5[16:1],,,2,,,7,,7,,2,,1,,2,,
7-4[16:1],,,7,,,2,,2,,8,,,,1,,
4h[16:3],,,3h[16:3],,,2,,6h[16:3],,,7h[16:3],,,8<1[8:3],,{1}8,
{16}
3-8[16:1],,,3,,,6,,6,,2,,1,,2,,
6-1[16:1],,,6,,,3,,3,,8,,,,1,,
5h[16:3],,,3h[16:3],,,1,,5h[16:3],,,7h[16:3],,,1s5[4:1],,
{8}1,,,,,8b,8b,,
{16}
7^4[16:1],,,7,,,2,,2,,7,,8,,7,,
2^5[16:1],,,2,,,7,,7,,1,,,,8,,
5h[16:3],,,6h[16:3],,,7,,3h[16:3],,,2h[16:3],,,1>8[8:3],,
{8}1,,,,,1b,1b,,
{16}
6^1[16:1],,,6,,,3,,3,,7,,8,,7,,
3^8[16:1],,,3,,,6,,6,,1,,,,8,,
4h[16:3],,,6h[16:3],,,8,,4h[16:3],,,2h[16:3],,,8z4[4:1],,
{8}8,,,,,1b,1b,,

{4}8/1h[4:1],2h[4:1],3h[4:1],4h[4:1],5h[4:1],6h[4:1],7h[4:1],8,
6/5h[4:1],2h[4:1],7h[4:1],4h[4:1],1h[4:1],6h[4:1],3h[4:1],8-4[16:1],
{1}8b,,{4},,,3b/7b,

{8}1,1,8,8,2,2,7,7,3,3,6,6,4,4,5,5,
{16}4,5,4,5,4,5,4,5,4,5,4,5,4,5,4,5,4,3,2,1,8,7,6,5,4,3,2,1,8b,,,,

2p5[8:1],,,2,,,7,,7,,28,,17,,28,,
7q4[8:1],,,7,,,2,,2,,78,,,,12,,
4h[16:3],,,3h[16:3],,,2,,6h[16:3],,,7h[16:3],,,8<1[8:3],,{1}8h[2:1],
{16}
3q8[8:1],,,3,,,6,,6,,27,,18,,27,,
6p1[8:1],,,6,,,3,,3,,28,,,,17,,
5h[16:3],,,3h[16:3],,,1,,5h[16:3],,,7h[16:3],,,1s5[4:1],,
{8}1,,,,,8b,8b,,
{16}
7p6[4:1],,,7,,,2,,2,,17,,28,,17,,
2q3[4:1],,,2,,,7,,7,,68,,,,13,,
5h[16:3],,,6h[16:3],,,7,,3h[16:3],,,2h[16:3],,,1>8[8:3],,
{8}1h[2:1],,,,,1b,1b,,
{16}
6q7[4:1],,,6,,,3,,3,,18,,27,,18,,
3p2[4:1],,,3,,,6,,6,,17,,,,28,,
4h[16:3],,,6h[16:3],,,8,,4h[16:3],,,2h[16:3],,,8z4[4:1],,
{8}8,,,,,1b,1b,,
{16}35,,,24,,,13,,57,,,68,,,1s5[4:1]/7,,

1,,8,8,{8},,,1b,2,1b,36,4,5,4,36,1b,,8b,
47,3,8,3,25,6,1^4[8:1],6,1^6[8:1],,1q2[4:1],,1,8b,8b,,
27,1,8,1,27,1b,2,1b,36,5,4,5,36,8b,,1b,
25,6,1,6,47,3,8^5[8:1],3,8^3[8:1],,8p7[4:1],,8,1b,1b,,
3^6[1:3]/6-3[1:3],

名前:
コメント:

タグ:

+ タグ編集
  • タグ:

このサイトはreCAPTCHAによって保護されており、Googleの プライバシーポリシー利用規約 が適用されます。

最終更新:2022年08月11日 13:26