L9

BPM EASY BASIC ADVANCED EXPERT MASTER
252-256 4 6 7 9+ 13

EASY


BASIC


ADVANCED


EXPERT


MASTER

(256){4}
12,5/6^8[16:1],,12,34,56,78,3^1[16:1]/4,,78,56,34,
12,5/6^8[16:1],,12,34,56,78,3^1[16:1]/4,,{8}8,7,6,5,4,,
{4}
12,5/6^8[16:1],,12,34,56,78,3^1[16:1]/4,,78,56,34,
12,5/6^8[16:1],,12,34,56,78,3^1[16:1]/4,,{8}8,7,6,5,4,,

{4}
1^4[4:1],4^7[4:1],7,1h[4:1],3h[4:1],5h[4:1],
8^5[4:1],5^2[4:1],2,8h[4:1],6h[4:1],4h[4:1],
1^4[4:1],4^7[4:1],7,1h[4:1],3h[4:1],5h[4:1],
8^5[4:1],5^2[4:1],2q5[2:1],,,,
1^4[4:1],4^7[4:1],7,1h[4:1],3h[4:1],5h[4:1],
8^5[4:1],5^2[4:1],2,8h[4:1],6h[4:1],4h[4:1],
1^4[4:1],4^7[4:1],7,1h[4:1],3h[4:1],5h[4:1],
8,17,26,35,26,17,

8b,{8}2,1,{4}2h[4:7],3,4,5,6,7,8,1-4[4:1],4-7[4:1],,
1,{8}7,8,7,,4,5,3,4,2,3,

2-5[8:1],,,7-4[8:1],,,1-5[8:1],,,8-4[8:1],,,
2-6[8:1],,,1-5[8:1],,,8-4[8:1],,,7-3[8:1],,,

1,5,2,5,3,5,2,5,3,5,4,5,

{4}1h[4:1],2h[4:1],3h[4:1],4-7[4:1],7-2[4:1],2-5[4:1],
5-8[4:1],,,{8},12,,34,,56,
{4}8h[2:3]/7,6,5,4,3,2,
1,28,{16},37,{8},,,46,,,{2}5h[2:1],{2}1,{8},

3b,5,4,5,4,5,6,5,4,5,4,5,
2,5,4,5,4,5,7,5,4,5,4,5,
{4}1-3[16:1],8-6[16:1],,2-4[16:1],7-5[16:1],,
{8}1,8,2,7,3,6,2,7,1,8,1b,,

(252)
5,5,2-5[16:1],,7-4[16:1],,,1-4[16:1],,8,,8,2,1,2,1,
4,4,7-4[16:1],,2-5[16:1],,,8-5[16:1],,1,,1,7,8,7,8,
5,5,2-5[16:1],,7-4[16:1],,,1-4[16:1],,8,,8,2,1,2,1,
4,4,7-4[16:1],,2-5[16:1],,,,8,7,6-2[16:1],5,4-8[16:1],,,,
5,5,2-5[16:1],,7-4[16:1],,,1-4[16:1],,8,,8,2,1,2,1,
4,4,7-4[16:1],,2-5[16:1],,,8-5[16:1],,1,,1,7,8,7,8,
5,5,2-5[16:1],,7-4[16:1],,,1-4[16:1],,8,,8,2,1,2,1,
4,4,7v8[8:1],,,,4,5,3,6,1,8,3,5,1,7,

8b,5,1,5,2,5,3,5,4,5,6,5,7,5,8,5,
7,5,6,5,4,5,3,5,2-6[8:1],,2,8-4[8:1],,8,3h[4:1],,
8,4,7,4,6,4,5,4,3,4,2,4,1,4,8,4^2[16:1],
,8^6[8:1],,,3^1[8:1],,,7^5[8:1],,,2q5[4:1],,,,,,
8,1,8,2,8,3,8,4,8,5,8,6,8h[4:1],,
1,8,1,7,1,6,1,5,1,4,1,3,1h[4:1],,
6,5,7,3,4,2,6,5,7,3,4,2,8,1,7,2,6,3,5,5,5,4,4,4,
1,4,8,4,7,4,6,4,5,4,3,4,2,4,1,4,
2,4,3,4,5,4,6,4,7-3[8:1],,7,1-5[8:1],,1,6h[4:1],,
1,5,2,5,3,5,4,5,6,5,7,5,8,5,1,5^7[16:1],
,1^3[8:1],,,6^8[8:1],,,2^4[8:1],,,7p4[4:1],,,,,,

{4}1>8[2:1],,,,12,18,78,8<1[2:1],,,,{8},78,,18,,12,

3h[4:1],,4h[4:1],,5h[4:1],,6h[4:1],,7,6,8,6,1,6,2,6,
2h[4:1],,1h[4:1],,8h[4:1],,7h[4:1],,6,7,5,7,4,7,3,7,
1,2,3,4,5,6,7,8,1,8,2,7,3,6,4,5,{12}8,7,6,5,4,3,{4}2-6[16:1],2b,

8^5[4:1],,8^3[4:1],,8-4[16:3],,26,48,
1^4[4:1],,1^6[4:1],,1-5[16:3],,{8},8,8,8,
1,7,2,6,3,5,4,4,5,3,6,2,7,1,8,8,
4,5,3,6,2,7,1,8,1,2,3,4,5,6,7,8,
{4}
1^4[4:1],,1^6[4:1],,1-5[16:3],,37,15,
8^5[4:1],,8^3[4:1],,8-4[16:3],,{8},1,1,1,
8,2,7,3,6,4,5,5,4,6,3,7,2,8,1,1,
5,4,6,3,7,2,8,1,8,7,6,5,4,3,2,1,

8^5[8:1],,8,,1^4[8:1],,1,,5,4,6,3,7,2,8,8,
1-6[8:1],,1,,8-3[8:1],,8,,4,5,3,6,2,7,1>5[4:1],,

{4}
5<1[4:1],1>5[4:1],5<1[4:1],1>5[4:1],5<1[4:1],1>5[4:1],
5<1[4:1],1>5[4:1],5<1[4:1],1-5[4:1],5b,,

{8}
3,5,4,5,4,5,6,5,4,5,4,5,
2,5,4,5,4,5,7,5,4,5,4,5,
{4}1-3[16:1],8-6[16:1],,2-4[16:1],7-5[16:1],,
{8}1,8,2,7,3,6,2,7,1,8,1b,,

45,45,27,,27,,45,45,27,,27,,36,1-4[16:1]/8-5[16:1],,1b/8b,

名前:
コメント:

タグ:

+ タグ編集
  • タグ:

このサイトはreCAPTCHAによって保護されており、Googleの プライバシーポリシー利用規約 が適用されます。

最終更新:2021年08月21日 14:27