おじゃま虫(創作譜面:わたあめ)

曲名 おじゃま虫
制作者名 わたあめ
音源
譜面動画
制作者コメント リクエスト品です。
BPM EASY BASIC ADVANCED EXPERT MASTER
143 - - - - 11

EASY


BASIC


ADVANCED


EXPERT


MASTER

(143){1}4h[8:3],5h[8:3],3h[8:3],{4}6h[8:3],,,{16},,4,5,
{8}3,,3,4,,4,,4,6,,6,5,,5,,5,3,,3,4,2,{16}8,1,7,,1,8,

2b,,5,4,5,,1,,2,,3-7[8:1],,3,,,,
,,4,5,4,,8,,7,,6-2[8:1],,6,,,,
,,5,4,5,,1,,2,,3-7[8:1],,3,,,,
,,4,5,4,,8,,7,,6-2[8:1],,6,,,,
,,7,8,7,,1,,8,,2-6[8:1],,2,,,,
,,2,1,2,,8,,1,,7-3[8:1],,7,,,,
,,7,8,7,,1,,8,,2-6[8:1],,2,,,,
,,2,1,2,,8,,1,,7-3[8:1],,7,,,,

{8}
1-5[16:3],1h[4:3],,,,7-3[8:1],7,,
8-4[16:3],8h[4:3],,,,2-6[8:1],2,,
1-5[16:3],1h[4:3],,,,7-3[8:1],7,,
8-4[16:3],8h[4:3],,,,2-6[8:1],2,,
4-8[16:3],4h[4:3],,,,6-2[8:1],6,,
5-1[16:3],5h[4:3],,,,3-7[8:1],3,,
4-8[16:3],4h[4:3],,,,6-2[8:1],6,,
5-1[8:1],5h[8:3],,,2-6[8:1],3,24,,

,1^3[8:1],8,7h[2:1],,8^3[8:1],8,8,
,5^7[8:1],4,3h[2:1],,4^7[8:1],4,4,
,3-6[8:1],3,3^6[4:1],,2,1,8,
,8-6[8:1],8,1-5[8:1],,2-4[8:1],2,2,
,1>5[8:1],1,1<5[4:1],,1,2,3,
,8-5[8:1],8,8z4[4:1],,8,1,2,
,18,45,{16},2,{8}7-2[8:1],2^7[8:1],7^4[8:1],4,
,3,2,1<4[4:1],,4,3,2,

1^4[8:1],,1^6[8:1],,1,5^2[8:1],,5^8[8:1],
,5,,15,2-5[8:1]/6-1[8:1],,2b/6b,,

38,4,5h[8:3],6-1[8:1],,6,4,3-6[8:1]/5h[2:1],
,,,1,2-7[8:1],3,4,5,
16,5,4h[8:3],3-8[8:1],,3,5,6-3[8:1]/4h[2:1],
,,,8,7-2[8:1],6,5,4,
38,4,5h[8:3],6-1[8:1],,6,4,3-1[8:1],
,4-1[8:1],,5-1[8:1],,6-1[8:1],,2,

{16}
3-7[16:1],,,3,,,4-1[16:1],,4h[2:1],,,,,6-3[16:1],,,
6-2[16:1],,,6,,,5,,5-1[8:1],,,6,5,7,7,,
{8}28,28,,,17,17,,,
{16}8/3b,3,,6/4b,6,3,3/5b,,{8}2^7[8:1]/7b,,,,

4-7[8:1],,4,3-7[8:1],,3,,4,
5-2[8:1],,5,6-2[8:1],,6,,1<5[16:3],
2,3,4<8[16:3],3,2,1-4[8:1],1,1-6[8:1],
,1,5h[8:3],,,4,45,3,
4-1[8:1],,4,5-1[8:1],,5,3,4,
5-1[8:1],1-5[8:1],2,3,4,3,,2,
1^3[8:1],8,7,6,5^7[8:1],4,3,2,

{16}
1b,,8,2,8,,1,,6-3[8:1],,3-6[8:1],,,,,,
,,1,7,1,,8,,3-6[8:1],,6-3[8:1],,,,,,
,,5,3,5,,4,,7-2[8:1],,2-7[8:1],,,,,,
,,4,6,4,,5,,2-7[8:1],,7-2[8:1],,,,,,
,,8,2,1,,2,,6-3[8:1],,3-6[8:1],,,,,,
,,1,7,8,,7,,3-6[8:1],,6-3[8:1],,,,,,
,,5,3,4,,3,,7-2[8:1],,2-7[8:1],,,,,,
,,4,6,5,,6,,2-7[8:1],,7-2[8:1],,,,,,

{8}
8-5[32:3],1,18,1,5-8[32:3],2,25,2,
8-5[32:3],3,38,3,5-8[32:3],4,45,4,
8-5[32:3],1,18,1,5-8[32:3],2,25,2,
8-5[32:3],3,38,3,5-8[32:3],4,45,4,
1-4[32:3],8,81,8,4-1[32:3],7,74,7,
1-4[32:3],6,61,6,{16}4-1[32:3],5,{8}5,54,5,
1-4[32:3],8,81,8,4-1[32:3],7,74,7,
1-4[32:3],6,61,6,4-1[32:3],5,54,5,

2-5[8:1]/6,,2/8-4[8:1],,81,1-5[8:1],,1/7-4[8:1],
,7/2-6[8:1],,2,7-3[8:1],,7b,,

,,2^7[8:1],6^1[8:1],,,5,,
,,7^2[8:1],3^8[8:1],,,4,,
,,7z3[4:1],7,,,4,,
,,8z4[4:1],8,,,3,,
,,2-6[8:1],6-2[8:1],,,8,,
,,7-3[8:1],3-7[8:1],,,1,{16}1,2,

3h[8:3],,,4-7[16:1],,,4-8[16:1],,8h[16:5],,,,,2h[16:3],,,
6h[8:3],,,5-2[16:1],,,5,,1-5[8:1],,,3,1,2,2,,
{8}3-8[8:1]/7-4[8:1],26,,,2-5[8:1]/6-1[8:1],37,,,
{6}48,37,26,{4}1-4[8:1]/5-8[8:1],1b/5b,

{8}
2^5[8:1],,2,8^5[8:1],,8v2[8:1],,8,
7^4[8:1],,7,1^4[8:1],,1v7[8:1],,1,
5^2[4:1],6,7,8,7^2[4:1],6,5,4-8[8:1],
,4,1h[8:3],,,8,18,4,
5^8[8:1],,5^2[8:1],2v8[8:1],,1,1,1,
7-2[8:1],3-6[8:1],7,3,,18,,7-3[8:1],
3,7,2-6[8:1],6,2,8-4[8:1],4,8,
,2q7[8:3]/7,3/6q3[4:1],,,,,,
{16}18,,4-1[8:1],5,3,6,4,,6,5,,3,4,,8,1,

{8}5h[1:2],,1,1,,,1,,
,,1,1,,,1,,
4h[2:3],,8,8,,,8,,
,,8,8,{16}5,3,6,4,7,,78,,

45,,45,,2,,2,4,3,,3,,7,,7,5,
{8}6-2[8:1],6,65,5,3-7[8:1],3,34,4,
1-5[8:1]/5,15,17,7,8-4[8:1],8,28,2,
3-8[8:1],3,35,5,{16}6-1[8:1],4,7,5,6,,3,,

{8}
8/2-5[8:1],2,2/7-4[8:1],7,7/1-5[8:1],,1/8-4[8:1],,
8/2-5[8:1],2,2/7-4[8:1],7,7/1-5[8:1],,1/8-4[8:1],,
8/2-5[8:1],2,2/7-4[8:1],7,7/1-5[8:1],,1/8-4[8:1],,
8/3v6[8:1],,3/5-1[8:1],,5b,,,,
1/7-4[8:1],7,7/2-5[8:1],2,2/8-4[8:1],,8/1-5[8:1],,
1/7-4[8:1],7,7/2-5[8:1],2,2/8-4[8:1],,8/1-5[8:1],,
2-6[8:1],2,3-7[8:1],3,4-8[8:1],4,5,5,
{16}1,5,3,7,4-8[8:1],8,2,6,{8}4b,,,,

,5,5,5,5,,,,
,4,4,4,4,,,,
,6,6,6,6,,,,
,3,3,3,4,4,5,5,
6,,6,,5,,5,,
4,,4,,3,,3,,
2,,2,,1,{16}8,1,8,,8,,
,3,5,4,5,4,6,,,1,5,4,8,4,7,3,

{8}
6-3[8:1],,16,8-5[8:1],,78,,36,
1>5[8:1],,15,1<5[8:1],,15,,2-5[8:1],
7-4[8:1],2,7,1,8,7-2[8:1],2^7[8:1],7^4[8:1],
,3,2,1-5[8:1],3-7[8:1],1b,3b,8,
1-5[8:1]/5,,18,7-3[8:1],,37,2,1,
8-5[8:1]/4-1[8:1],1-4[8:1]/5-8[8:1],,,,37,,2-5[8:1],
13,2,7-4[8:1],68,7,1-6[8:1],28,1,
,4-7[16:3]/5-2[16:3],18,,,,1b/6b,3b/8b,

1-6[8:1]/8,8,1-5[8:1]/2,2,1-4[8:1]/8,,1-5[8:1]/2,,
1-6[8:1]/8,8,1-5[8:1]/2,2,1-4[8:1]/8,,1-5[8:1]/2,,
1-6[8:1]/8,8,1-5[8:1]/2,2,1-4[8:1]/8,,1/2^7[8:1],,
2/6q3[8:1],,6/4v5[8:1],,4b,,,,
8-3[8:1]/1,1,8-4[8:1]/7,7,8-5[8:1]/1,1,8-4[8:1]/7,7,
8-3[8:1]/1,1,8-4[8:1]/7,7,8-5[8:1]/1,1,87,7,
26,26,15,15,48,48,37,37,
{16}26,37,48,15,26,37,48,15,2-6[8:1]/6b,,,,,,,,,,,,,,,E

名前:
コメント:

タグ:

+ タグ編集
  • タグ:

このサイトはreCAPTCHAによって保護されており、Googleの プライバシーポリシー利用規約 が適用されます。

最終更新:2015年03月27日 16:01