二息歩行

アーティスト DECO*27

BPM EASY BASIC ADVANCED EXPERT MASTER
180 3 3 6 10 13

EASY


BASIC

(180.0){4}1,,,2,
{4}2,,,3,
{4}3,,,4,
{1}4,
{4}4/5,,,6,
{4}6,,,7,
{4}7,,,8,
{1}8,
{1}1/8,
{1}2,
{1}1,
{1}8,
{1}1-5[4:3],,
{1}8-4[4:3],,
{2}1,1,
{1}8,
{2}8,8,
{1}7,
{2}7,7,
{1}6,
{2}6,6,
{1}5,
{1}4h[2:1],
{1}3h[2:1],
{1}4h[2:1],
{2}4/5,4/5,
{1}5h[2:1],
{1}6h[2:1],
{1}5-8[4:3],,
{1}1h[1:1],,
{2}1,2,
{2}3,3,
{2}3,4,
{2}5,5,
{2}5,6,
{2}7,7,
{2}7,8,
{2}1,1,
{1}1b/8b,,
{1}1,
{1}1,
{1}8,
{1}8,
{1}7,
{1}7,
{1}6h[1:1],,
{1}5h[1:1],,
{1}4h[1:1],,
{2}3,3,
{1}3,
{2}2,2,
{1}2,
{1}1h[1:1]/2h[1:1],,
{1}7h[1:1]/8h[1:1],,
{4}6,6,6,,
{4}5,5,5,,
{4}4,4,4,,
{4}3,3,3,,
{4}2,2,2,,
{4}1,1,1,,
{4}8,8,8,,
{4}7,7,7,,
{1}6h[2:1],
{2}5,4,
{1}3h[2:1],
{2}4,5,
{2}6,6,
{2}7,7,
{2}8,8,
{2}1,{1}1-4[4:3],,
E

ADVANCED

(180.0){4}2,,,2,
{1}2h[4:3],
{1}1h[4:3],
{4}8h[2:1],,,7,
{1}7h[4:3],
{1}8h[4:3],
{1}1h[4:3],
{4}2,,3,4,
{4}5,6,7,8,
{4}1,2,3,4,
{4}5,4,3,2,
{4}1,8,7,6,
{1}5-8[2:1],
{1}1-4[2:1],
{1}3-7[2:1],
{1}6-2[2:1],
{4}4,3,2,,
{4}5,6,7,,
{4}2,1,8,7,
{4}3,4,5,6,
{4}1,2,3,,
{4}8,7,6,,
{4}3,2,1,8,
{4}6,7,8,1,
{1}8-5[2:1],
{1}4-1[2:1],
{1}6-1[2:1],
{1}2-5[2:1],
{1}8^5[2:1],
{1}4^1[2:1],
{4}8h[4:7],1,,1,
{4},1,,1,
{1}8h[1:1],
{4},1b,1b,1b,
{2}1/8,1/8,
{4}1,3,5,7,
{2}1/8,1/8,
{4}8,6,4,2,
{2}1/8,1/8,
{4}3,4,5,6,
{2}1/8,1/8,
{4}7/8,7/8,1/2,1/2,
{1}1^4[1:1]/8^5[1:1],,
{1}1/2,
{1}1/2,
{1}7/8,
{4}7/8,,1,1,
{4}1,,8,8,
{4}8,,1,8,
{4}2,7,1,8,
{1}2b/7b,
{1}1h[4:3],
{4}8,7,6,,
{1}8h[4:3],
{4}1,2,3,,
{2}4h[4:1],3/5,
{2}5h[4:1],4/6,
{2}4/8,3/7,
{2}2/6,1/5,
{4}1,2,3,4,
{4}5,6,7,8,
{4}1,3,5,7,
{4},1b,8b,1b,
{2}1/8,2/7,
{4}1/2,1/2,7/8,7/8,
{2}2/7,1/8,
{4}3/4,3/4,5/6,5/6,
{2}4/5,2/7,
{4}3/4,4/5,5/6,4/5,
{2}2/7,4/5,
{4}5/6,4/5,3/4,4/5,
{2}1/2,7/8,
{4}1/8,2-4[4:1]/7-5[4:1],,,
{2}7/8,1/2,
{4}2/7,1-3[4:1]/8-6[4:1],,,
{1}1h[2:1],
{4}1,1,3,3,
{4}5,5,7,7,
{4}8,1,{8}2^7[8:5],,,,,,,,
E

EXPERT

(180.0){4}1/8,,,5/1s5[2:1],
{4},,,4/8z4[2:1],
{4},,,1p4[8:3],
{4},8q5[8:3],,3q6[2:1],
{4},,,7s3[2:1],
{4},,,1-4[8:3],
{4},,,1-7[4:1],
{2},6-3[4:1],
{4}1,1,2,2,
{4}3,3,4,4,
{4}8,8,7,7,
{8}6,,6,,5,4,5,4,
{4}5,6,7,8,
{4}4,3,2,1,
{4}1,8,3,5,
{8}7,,2,,8,1,7,2,
{4}5,1/5,1/5,2/6,
{4}2/6,2-7[4:1]/6-3[4:1],,,
{4}6,4,5,3,
{4}4,2q7[4:1],,,
{4}5,5,4,4,
{4}5,5-8[4:1],,,
{4}1,2,8,7,
{4}3,4,6,4/5,
{2}4/5,3/4,
{2}4/5,5/6,
{4}2/7,,1/8,8/1p4[4:1],
{4},8q5[4:1],,2-6[4:1],
{2}7,1,
{2}2h[2:1],8,
{8}1,1,8,8,,1,8,1,
{8},7,2,7,,,4/5,,
{8}1/8,,3,7,,1,5,1,
{4},1b/3b,5b/7b,2b/6b,
{4}3,1/5,7,1/5,
{4}1/8,1/8,4/5,4/5,
{4}8,2/6,4,2/6,
{4}4/5,4/5,1/8,1/8,
{4}2,5/6,7,3/4,
{4}5/6,5/6,3/4,3/4,
{4}6,1/2,3,7/8,
{4}1/2,1/2,7/8,7/8,
{8}2,2h[4:1],,3,,7,6,5,
{8},1,,1,8b,,,,
{8}1,1,2h[4:1],,,,8,8,
{8}7h[4:1],,,,2,2,1h[4:1],,
{4},5/6,3/4,,
{8}6,5,4,,1,1,1-5[8:1],,
{4},,3/5,8-4[8:1],
{4},,1-5[8:1],8-4[8:1],
{4}2-5[8:1],,8,8z4[8:3],{1},
{8}8^5[4:1],,,,1,1,2,,
{8}8,8,1,1,,,1,,
{8}1^4[4:1],,,,8,8,7,,
{8}1,1,2,2,,,8,,
{2}2/7,1-3[8:1]/7-5[8:1],
{2},3-5[8:1]/7-1[8:1],
{4},,1^4[4:1],5^8[4:1],
{4},,3/4,5/6,
{8}2,1,8,7,,8,1,2,
{8},6,,6,,3,4,,
{4}1/5,2/6,3/7,4/8,
{4},7b/8b,5b/6b,3b/4b,
{8}1/8,,,4/6,3/5,,,8,
{4}8-4[8:1],1,1-5[8:1],,
{8}8,,,3/6,4/5,,,1,
{4}1-5[8:1],7,7-3[8:1],,
{8}1,,,3/5,4/6,,,7,
{4}7-4[8:1],3,3-8[8:1],,
{8}6,,,1/8,2/7,,,2,
{4}2-6[8:1],8-4[8:1],1-5[8:1],,
{2}8-5[8:1],4-1[8:1],
{8}8,8,7,7,6,6,5b,,
{2}4-1[8:1],8-5[8:1],
{8}1,1,2,2,3,3,4b,,
{2}1-4[8:1]/7-4[8:1],2-5[8:1]/8-5[8:1],
{8}4,5,4,5,3,6,3,,
{4}1/2,5/6,3/4,7/8,
{4}4/5,1/8,{1}7>5[4:3],,
E

MASTER

(180){8}
1/8h[4:3],,2,2,2,,4h[4:1],,6h[4:1],,2h[4:1],,3h[4:1],,8,,
6h[4:3],,5,5,5,,4h[1:1],,5,,6,,7,,8,,
8<4[2:1]/6v8[2:1],,,,,,,,2-5[2:1]/8-5[2:1],,,,,,,,
4<7[4:1],,7>2[4:1],,2>5[4:1],,,,7-2[4:1],,,,,,36,,

2,2,12,2,2,2,26,2,1-6[8:1],5,,5,8-3[8:1],5,,5,
7,7,78,7,7,7,37,7,8-3[8:1],4,,4,1-6[8:1],4,,4,
2,2,12,2,3,3,36,3,1-6[8:1],5,,5,8-3[8:1],4,,4,
7,7,78,7,6,6,36,6,8-3[8:1],4,,4,1-6[8:1],5,,5,

1h[4:1],,5h[4:1],,2h[4:1],,6,6,18,,2p6[4:1]/7q3[4:1],,,,,2,
2h[4:1],,7,,1-4[8:1]/8-5[8:1],,,,4h[4:1],,5h[4:1],,1h[4:1],,8,8,
4h[4:1],,7h[4:1],,6h[4:1],,8,8,2>4[8:1],,7<5[4:1],,,,,3,
3,,2,,1h[4:1]/6,,7,,1h[4:1]/8,,7,,1h[4:1]/6,,5-8[2:1],,

{4},,1,,1,,7,2h[2:1],,1-5[8:1],2-4[8:1],,36,2-6[8:1]/7-3[8:1],,,
8-5[8:1],2-5[8:1],8v2[8:1],,3-6[8:1],6>3[8:1],7,2>1[4:3],
,,,,6h[4:3]/2-5[8:1],,5-8[8:1],,
{8}1/7h[8:7],,1,8,,6,6,8,,,2<7[8:1]/6,,4-8[8:1],,2b,,

1-6[8:1]/8,7,,7,1/8-3[8:1],2,,2,35,,57,,17,,13,,
1-6[8:1]/8,7,,7,1/8-3[8:1],2,,2,1-3[8:1]/8-6[8:1],,,,2-4[8:1]/7-5[8:1],,,,
4-7[8:1]/5,6,,6,4/5-2[8:1],3,,3,13,,17,,57,,35,,
4-7[8:1]/5,6,,6,4/5-2[8:1],3,,3,
1/8-5[8:1],,1-4[8:1]/8,,1/8-5[8:1],,1-4[8:1]/8,,
6,7,,7,,7,5,8h[4:1],,6,,6,{16}4,5,4,5,{8}3b/6b,,

1,2,3<6[8:1],,,,47,8,1[4:1],,2,,3,4,2/5<8[8:1],
,,,1,2,3,,47,,5,6,7h[4:1],,8,1,25,,
{4}3h[2:1],,1v3[8:1],2-6[8:1],,,7-5[8:1],2-6[8:1],
8-4[8:1],2-5[8:1],7-4[8:1],1s5[8:1],,,{8}2,1,2-7[2:1],,
2,,5,4h[4:1],,,5-8[2:1],,5,,3,2h[4:1],,,3-6[2:1],,
3,,8,1h[4:1],,,8-5[2:1],,8,,1,1,,,3,3,
8h[8:7],,,6,5,4,3,1h[8:7]/2,,,,3,4,5,6,78,
,,,4,5,,4,,2h[4:1]/7h[4:1],,,,5h[4:1]/8h[4:1],,,,
{4}3p7[2:1]/7p3[2:1],,,,2q6[2:1]/6q2[2:1],,,,2h[1:1]/6h[1:1],,,,,
{16}3,2,1,8,1b,2,3,4,5,6,7,,

{8}1/2-7[8:1],8,,8,1-4[8:1]/2,3,,3,46,,68,,28,,24,,
1/2-7[8:1],8,,8,1-4[8:1]/2,3,,3,8-2[8:1],,3-7[8:1],,6-4[8:1],,,,
5/6-3[8:1],4,,4,5-8[8:1]/6,7,,7,24,,28,,68,,46,,
5/6-3[8:1],4,,4,5-8[8:1]/6,7,,7,
1/8-5[8:1],,1-4[8:1]/8,,1/8-5[8:1],,18,,

23,2,21,2,23,2,21,2,2h[4:3]/3,,5,,7,,1b,,
67,7,78,7,67,7,78,7,7h[4:3]/6,,4,,2,,8b,,
23,2,24,2,25,2,2/6b,2,67,7,57,7,47,7,3b/7,7,
{4}8<5[4:1],5>2[4:1],2<7[4:1],7-3[4:1],3-8[4:1],8-5[4:1],5-1[2:1],,,,,,,,E

名前:
コメント:

タグ:

+ タグ編集
  • タグ:

このサイトはreCAPTCHAによって保護されており、Googleの プライバシーポリシー利用規約 が適用されます。

最終更新:2022年07月02日 22:25