Cutie Panther(創作譜面:ろこ)

曲名 Cutie Panther
制作者名 ろこ (Tw:@ymsk_lc)
音源 スクフェス音源と同じ曲進行に編集
譜面動画
制作者コメント はじめて真面目に作りました(震え声)
楽しさ重視+リアル譜面志向。よかったら遊んでみてくだしあ。
もし譜面データ見難いわ!とか生txtほしいねん!って人は動画にあるURLよりDLしてください。
txtデータですのでそちらのほうが扱いやすいかもしれません。
BPM EASY BASIC ADVANCED EXPERT MASTER
170 - - - - 11

EASY


BASIC


ADVANCED


EXPERT


MASTER

(170)
{1}1h[1:1],
3h[1:1],
5h[1:1],
{4}7h[4:3],,1,1b,

{4}1,1,5,5,3,3,7,7,
{8}2,2,6,6,8,8,4,4,
1/5,2/6,3/7,4/8,1-6[8:1]/5-2[8:1],,1b/5b,,

{8},2h[4:1],3,4h[8:1],8h[4:1],7,6h[8:3],,
,1h[4:1],2,3h[8:1],7h[4:1],6,5h[8:3],,
,1,8-4[8:1],1-5[8:1],8,1,,7-3[8:1],
2-6[8:1],7,2,,1/8,1/8,1/8,,
1/8,7h[4:1],6,5h[8:1],1h[4:1],2,3h[8:3],,
,8h[4:1],7,6h[8:1],2h[4:1],3,4h[8:3],,
,8,1-5[8:1],8-4[8:1],1,8,,2-6[8:1],
7-3[8:1],2,7,,,,,,

{8},1-5[8:1],2/8,1,,4/6,3/7,2/8,
,8-4[8:1],1/7,8,,5/3,6/2,7/1,
,7^4[8:1],8,7,2^5[8:1],1,2,8-4[8:1],
1-5[8:1],8,1,8<4[8:1],,8>4[8:1],,8b,

,6,7,8h[2:1],4,3,2-6[8:1],1h[2:1],
2,,7^2[8:1],7h[4:1],,,,4h[8:3]/8h[8:3],
,,,4p8[8:1]/8p4[8:1],4^7[2:1]/8^3[2:1],4/8,,,
{16},,,,,,,,1,7,3,5,2,8,4,6,

{2}1-4[8:1],8p3[8:1],1v4[2:1]/7v4[2:1],,
{8},8h[4:1],6,4h[8:1],6h[4:1],8,2h[4:1],4,
,1h[4:1],3,5h[8:1],3h[4:1],1,7h[4:1],5,
{2}1-4[8:1],8p3[8:1],1v4[2:1]/7v4[2:1],,
{8},1h[8:1],2h[8:1],3h[8:1],4h[8:1],5h[8:1],6h[8:1],7h[8:1],
{8}8z4[2:1],,1,1,,,,,

{16}6,7,8,1,2b/8b,,,,3,2,1,8,1b/7b,,,,
{4}1/7,3/4,2/8,5/6,
{16}7,6,5,4,3b/5b,,,,2,3,4,5,6b/4b,,,,
{4}2/8,5/6,1/7,3/4,

{8}2-4[8:1],2,8-6[8:1],8,1-5[8:1],,1,7-3[8:1],
,7,2-6[8:1],2,5,7,4b/8b,,
5v7[8:1],5,3v1[8:1],3,4-8[8:1],,4,5-1[8:1],
,5,7-3[8:1],7,4,2,1b/5b,,

4,4,4h[2:1],,8,8,8h[2:1],,
5,5,5h[2:1],,1,1,1h[8:5],,
5,6,7,8h[8:11],,4,3,2,
1h[4:3],,,,,,,,

{16}1,8,7,6,5,4,3,2,{32}1,2,3,4,5,6,7,8,1,2,3,4,5,6,7,8,

{8}1-6[8:1],,1/8-4[8:1],,8/1-5[8:1],,1,4-8[8:1],
,5-1[8:1]/4,,5/8<1[4:1],,,,,
8v6[8:1],,8/4v2[8:1],,4/6v3[8:1],,6,5v2[8:1],
,4v7[8:1]/5,,4/1>8[4:1],,,,,
3>5[2:1],,,4,4-8[8:1],,4b,,
6<4[2:1],,,5,5-1[8:1],,5b,,
,6/8,3/4,5/6,1/3,5/7,8/2,5/6,
3/4,1-4[8:1]/8-5[8:1],3/6,1b/8b,,,,,

8-3[8:1],,8/1-5[8:1],,1/8-4[8:1],,8,5-1[8:1],
,4-8[8:1]/5,,4/1>8[4:1],,,,,
1v3[8:1],,1/5v7[8:1],,5/3v6[8:1],,3,4v7[8:1],
,5v2[8:1]/4,,5/8<1[4:1],,,,,

7<1[2:1],,,8,8-4[8:1],,8b,,
2>8[2:1],,,1,1-5[8:1],,1b,,
8/7b,8,8/6b,8,8/5b,8,8/4b,8,
1/2b,1,1/3b,1,1/4b,1,1/5b,1,

{1}1h[1:3]/5<5[1:2],,,

{8},,,,1/8,1/8,1/8,,
1/8,7h[4:1],6,5h[8:1],1h[4:1],2,3h[8:3],,
,8h[4:1],7,6h[8:1],2h[4:1],3,4h[8:3],,
,8,1-5[8:1],8-4[8:1],1,8,,2-6[8:1],
7-3[8:1],2,7,,1/8,1/8,1/8,,

1/8,2h[4:1],3,4h[8:1],8h[4:1],7,6h[8:3],,
,1h[4:1],2,3h[8:1],7h[4:1],6,5h[8:3],,
,1,8-4[8:1],1-5[8:1],8,1,,7-3[8:1],
2-6[8:1],7,2,,1-5[8:1]/8,1/8,1/8-4[8:1],,

{16}3,2,1,8,6,7,8,1,4h[4:1],,,,5,6,7,8,
4,3,2,1,8/4,,,,1/5,2/6,3/7,4/8,1/5,,,,
6,7,8,1,3,2,1,8,5h[4:1],,,,4,3,2,1,
5,6,7,8,1/5,,,,8/4,7/3,6/2,5/1,8/4,,,,
2,3,4,5,7,6,5,4,1h[4:1],,,,8,7,6,5,
1,2,3,4,5/1,,,,4/8,3/7,2/6,1/5,4/8,,,,
7,6,5,4,2,3,4,5,8h[4:1],,,,1,2,3,4,
8,7,6,5,4/8,,,,5/1,6/2,7/3,8/4,5b/1b,,,,
8/4,7/3,6/2,5/1,8b/4b,,,,
{32}8z4[4:1],1,2,3,4,5,6,7,8b,,,,,,,,,
{1},,
E

名前:
コメント:

タグ:

+ タグ編集
  • タグ:

このサイトはreCAPTCHAによって保護されており、Googleの プライバシーポリシー利用規約 が適用されます。

最終更新:2015年05月03日 20:31