ウミユリ海底譚

BPM EASY BASIC ADVANCED EXPERT MASTER
120 2 4 6 8+ 13

EASY


BASIC

(120.0){1},
{2}1,1,
{4}2,2,2,,
{2}8,8,
{4}7,7,7,,
{2}6,6,
{4}5,4,5,,
{2}3,3,
{4}4,5,4,,
{2}6,5/6,
{4}5,4,5,,
{2}3,3/4,
{4}4,5,4b,,
{2}6,6,
{2}7,7,
{2}8,8,
{4}1,1,1,,
{1}1h[2:1],
{1}8h[2:1],
{2}1,2,
{4}3,3,3/4,,
{4}4,4,5,,
{4}5,5,6,,
{2}5/6,4/5,
{2}3/4,4/5,
{4}5,5,6,,
{4}6,6,7,,
{2}7/8,1/8,
{2}1/2,1/8,
{4}1,8,1b,,
{4}8,8,1,,
{4}1,1,2,,
{4}2,2,3,,
{2}3/4,3/4,
{4}1,1,8,,
{4}8,8,7,,
{4}7,7,6,,
{2}5/6,5b/6b,
{1}6-3[4:3],
{2},2,
{1}3-6[4:3],
{2},7,
{1}6h[2:1],
{1}5h[2:1],
{1}4h[2:1],
{1}3h[2:1],
{2}2,2,
{2}1,1,
{2}8,8,
{2}7,7,
{4}6,6,5,,
{2}4/5,4b/5b,
{4}4,4,3,,
{4}2,2,1/2,,
{4}1,1,8,,
{4}7,7,7/8,,
{4}6,5,4,,
{4}3,4,5,,
{4}6,6,5/6,,
{4}3,3,3b/4b,,
{4}5,5,6,6,
{4}7,7,1/8,,
{4}1,1,2,2,
{4}3,3,4/5,,
{2}6,7,
{4}8,,1,1,
E

ADVANCED

(120.0){1},
{8}3/4,,5/6,,4,5,4,,
{8}5/6,,3/4,,2,1,8,,
{8}1/2,,7/8,,1,8,1,,
{8}7/8,,1/2,,7,8,1,,
{4}3h[4:1],4,6h[4:1],5,
{4}3h[4:1],6h[4:1],4h[4:1],5,
{4}2h[4:1],1,7h[4:1],8,
{4}2h[4:1],7h[4:1],1h[4:1],8,
{4}3,2/4,6,5/7,
{4}3/4,5/6,1/7,2/8,
{4}7,6/8,2,1/3,
{8}7/8,,1/2,,8,8,1/8,,
{8}2,,3,,4,5,4,5,
{4}4h[2:1],,6,3/5,
{8}6,,7,,8,1,8,1,
{4}8h[4:1],1,2/7,4/5,
{4}6h[4:1],5,3h[4:1],4,
{4}2h[4:1],1,7h[4:1],8,
{4}5h[2:1],,3,4/6,
{8}5,4,5,4,5,,2/7,,
{4}3,4,5/6,7,
{8}6,,5,,3/4,,5,4,
{8}3/6,,,,2h[4:1],,{865}1,,,,,,,,,,,,,,,,,,,,,,,,,,,,,,,,,,,,,,,,,,,,,,,,,,,,,,,,,,,,,,,,,,,,,,,,,,,,,,,,,,,,,,,,,,,,,,,,,,,,,,,,,,,,,,,,,,,,,,,,,,,,,,,,,,,,,,,,,,,,,,,,,,,,,,,,,,,,,,,,,,,,,,,,,,,,,,,,,,,,,,,,,,,,,,,,,,,,,,,,,,,,,,,,,,,,,,{769}7h[673:170],,
{8},,8,,1/8,,2,2,
{8}2,,3,3,3,,4,4,
{8}4,,5,5,5,,6,6,
{8}6,,1/7,,2/8,,1,8,
{4}2/7,,3/4,5/6,
{8}4,5,4,5,4,,4b/5b,,
{8}1/2,,3/4,,6,5,6,,
{8}7/8,,5/6,,3,4,3,,
{8}1/2,,7/8,,6,5,6,,
{8}7/8,,1/2,,3,4,3,,
{8}5/6,,3/4,,2,1,2,,
{8}3/4,,5/6,,7,8,7,,
{8}5/6,,4/7,,8,1,8,,
{8}3/4,,2/5,,1,8,1,,
{2}2-5[8:1],7-4[8:1],
{8}3,,2/4,,1,1,1/8,,
{2}7-4[8:1],2-5[8:1],
{8}6,,5/7,,8,8,1,1,
{2}1/8,2/3,
{8}6/7,,,,4/5,,,3,
{2}3/4,7/8,
{8}1/6,,2/5,,3,4,3,,
{2}1/8,6/7,
{8}2/3,,,,4/5,,,6,
{2}5/6,1/2,
{8}3/8,,4/7,,6,5,6,,
{4}3h[4:1],4h[4:1],5h[4:1],6h[4:1],
{8}4h[2:1],,,,5,4,3b/6b,,
{8}1/2,,3/4,,6,5,6,,
{8}7/8,,5/6,,3,4,3,,
{8}1/2,,3/8,,7,6,4/5,,
{8}7/8,,1/6,,2,3,4/5,,
{8}3/6,,2/7,,1,8,1,,
{8}2/7,,3/6,,4/5,4/5,3/6,,
{4}2h[4:1],1,7h[4:1],8,
{4}4h[4:1],5,1-4[8:1]/8-5[8:1],,
{4}3h[4:1],4,6h[4:1],5,
{8}4,5,4,5,4,,2/7,,
{4}6h[4:1],8,3h[4:1],1,
{8}8,1,8,1,8,1,2/7,,
{2}3h[2:1],6h[2:1],
{8}4h[2:1],,,,5,4,3/6,
E

EXPERT

(120.0){8}8,,8,,4,5,4,5,
{8}3,,3/4,,2,1,2,,
{8}6,,5/6,,7,8,7,,
{8}2,,1/2,,3,4,3,,
{4}4/6,3/5,4h[4:1]/6h[4:1],,
{8}7,8,7,8,6,5,6,5,
{8}4,3,2,1,8h[4:1],,1,,
{8}2,1,2,1,3,4,3,4,
{8}5,6,7,8,1h[4:1],,8,,
{8}7,8,6,1,5,2,4,3,
{8}6,5,7,4,8-4[32:3],,2,,
{8}2,1,3,8,4,7,5,6,
{8}3,4,2,5,1-5[32:3],,7b,,
{4}4,3/5,5,4/6,
{8}3h[4:1],,1,,8,7,6,5,
{4}4,2/5,5,4/7,
{4}5h[4:1],3h[4:1],1h[4:1],8,
{8}1^4[32:3],7,7,,8^5[32:3],2,2,,
{8}2q6[32:3],8,8,,7p3[32:3],1,1,,
{4}1h[4:1],7h[4:1],5h[4:1],4,
{4}3/5,4/7,1/6,2b/8b,
{8}2,3,4,5,6/7,,3/6,,
{8}7,6,5,4,2/3,,3/6,,
{2}8h[4:1]/2^5[32:3],1h[4:1]/7^4[32:3],
{4}3h[4:1],4h[4:1],5,3/6,
{8}3,2,1,8,6/7,,2/7,,
{8}6,7,8,1,2/3,,2/7,,
{2}5h[4:1]/3^8[32:3],4h[4:1]/6^1[32:3],
{4}2h[4:1],4h[4:1],6h[4:1],8,
{4}7/8,5/6,3/4,1b/2b,
{8}4,4,6,6,7/8,7/8,1/6,,
{8}5,5,3,3,1/2,1/2,3/8,,
{8}4,4,6,6,1/7,1/7,2/8,,
{4}6h[4:1],5h[4:1],4h[4:1],3b,
{8}1,1,7,7,5/6,5/6,4/7,,
{8}8,8,2,2,3/4,3/4,2/5,,
{8}1,1,7,7,4/6,4/6,3/5,,
{4}3h[4:1],4h[4:1],5h[4:1],6b,
{8}7,8,7,1,6,4,5,,
{8}2,1,2,8,3,5,4,,
{8}4/5,3,4/5,6,4/5,2,4/5,7,
{8}4/5,3,4/5,6,4-1[32:3]/5-8[32:3],,,,
{4}1,2,3,4,
{8}5h[2:1],,,,,,,6,
{1}5h[2:1]/6h[2:1],
{4}7,8,1h[4:1],8,
{4}1,2,3,4,
{8}5<1[4:1],,,,,,,2,
{1}2>6[4:1],
{4}6h[4:1],5h[4:1],4h[4:1],3b,
{8}3,3,1,1,7/8,7/8,1/6,,
{8}7h[4:1]/8h[4:1],,,,4/6,3/5,2/4,,
{8}7,7,5,5,3/4,3/4,2/5,,
{4}1-4[32:3],8-5[32:3],1-4[32:3],,
{8}6,6,8,8,1/2,1/2,3/8,,
{8}3,3,5,5,6b/8b,1b/7b,2b/8b,,
{8}2,2,4,4,5/6,5/6,4/7,,
{4}8-5[32:3],1-4[32:3],8-5[32:3],,
{8}2,3,4,5,1,8,7,6,
{8}4,5,6,7,1/8,1/8,2/7,,
{8}7,8,7,4/6,2,1,2,3/5,
{8}6,3,7,2,1-4[32:3]/8-5[32:3],,,,
{8}6,5,6,1/7,3,4,3,2/8,
{8}7,2,6,3,4/5,3/6,2b/7b,,
{4}8h[2:1],1,2h[2:1],7,
{8}6h[2:1],,3,,4h[4:1],5,5,
E

MASTER

(120)
{8}5h[4:3],,,,4,4,4,34,
6,56,3,34,7,57,2,24,
6,56,3,34,5,45,27,,
3,34,6,56,4,45,27,56,
47,34,25,18,45,45,27,,

{16}
46,,3,,24,,5,5,46,,3,,24,,5,,
46,,7,,46,,3,,2/4h[4:1],,2,,5,,4,,
35,,6,,57,,4,4,35,,6,,57,,4,,
35,,2,,35,,6,,7/5h[4:1],,7,,4,,3,,
28,,7,,68,,1,1,28,,7,,68,,1,,
28,,3,,28,,7,,6/8h[4:1],,6,,1,,8,,
17,,2,,13,,8,8,17,,2,,13,,8,8,
17,,6,,17,,2,2,13,,8,,2b/7b,,,,

{8}1^4[8:1],5,6,5,1^6[8:1],5,4,5,
1^4[8:1],5,6,5,1,5,3,{16}8,1,
{8}8^5[8:1],4,3,4,8^3[8:1],4,5,4,
8^5[8:1],4,3,4,8,4,{16}4,5,4,5,
{8},1,2,1^4[4:1],,8,7,8^5[4:1],
,1,2,1^4[4:1],,8,7,8<2[4:1]],
8,,,1,1h[8:3],,,8,
8-4[8:1],8,1-5[8:1],1,,,45,2,

2^7[12:1],2,6q3[12:1],6,,,1,8,
7^2[12:1],7,3p6[12:1],3,,,{16}4,4,5,5,
{8}36,,5,6,7,8,1,2,
3>6[4:1],4,5,5,4,,4,5,
6^3[12:1],6,2q7[12:1],2,,,8,1,
3^6[12:1],3,7p2[12:1],7,,,{16}5,5,4,4,
{8}36,,2,3,4,5,6z2[32:5],6,
,,,2,2^5[12:1],2,8^5[12:1],8,
1-5[12:1],1,8-4[12:1],8,,,4b/5b,,

2,1/8-4[12:1],7,1-5[12:1]/8,2,1/8-4[12:1],7,1-5[12:1]/8,
2,1/8-4[12:1],7,1-5[12:1]/8,2,18,7,18,
2,1/8-4[12:1],7,2-6[12:1]/8,3,28,7,12,
47,78,25,12,47,5,3,2/8^5[12:1],
7,1^4[12:1]/8,2,1/8^5[12:1],7,1^4[12:1]/8,2,1/8^5[12:1],
7,1^4[12:1]/8,2,1/8^5[12:1],7,18,2,18,
7,1-5[12:1]/8,2,1/7-3[12:1],6,17,2,56,
38,34,16,18,45,45,2b/7b,{16}8,1,

8,,7,,6,,3,4,2,5,8h[8:1],,7,8,6,1,
5,2,4h[8:1],,2,1,3,8h[8:1],,7,,16,,2,5,3,
4,,45,,56,,2,1,3,8,4,7,5,,34,,
45,,57,,45,,34,,56,,24,,57,,18,,

{8}
4,4h[4:1],5,5h[4:1],4,4h[4:1],5,5h[4:1],
3,3h[4:1],6,6h[4:1],3,3h[4:1],6,6h[4:1],
4,4h[4:1],6,6h[4:1],3,3h[4:1],5,5h[4:1],
4,4h[4:1],5,5,45,45,36,,

{16}
24,,3,3,4,,2,,57,,6,6,5,,7,,
24,,3,3,4,,2,,57,,6,6,5,,7,,
13,,2,2,3,,1,,68,,7,7,6,,8,,
13,,2,2,3,,1,,{8}45,45,27,,

6-2[12:1],6,3-8[12:1],3,5-1[12:1],5,4>5[8:3],4,
,,,,18,18,2b/7b,,

1,7^4[12:1]/8,6,7/8^3[12:1],1,7^4[12:1]/8,6,7/8^3[12:1],
1,7^4[12:1]/8,6,7/8^3[12:1],1,78,6,1/2^5[12:1],
3,1^6[12:1]/2,8,1/2^5[12:1],3,1^6[12:1]/2,8,1/2^5[12:1],
3,1^6[12:1]/2,8,12,3,78,2b/5b,,
2,1/8^5[12:1],7,1^4[12:1]/8,2,1/8^5[12:1],7,4^1[12:1]/8,
3,4/8^5[12:1],7,38,3,4,25,,

3,4,6,5,3,4,6,{16}4,5,
3,6,4,5,3,6,{8}4,45,45,2b/7b,,

3,2/7^4[12:1],6,7/1-5[12:1],2,1/8-4[12:1],7,8/2^5[12:1],
3,2/8-4[12:1],7,8/1-5[12:1],2,1/7^4[12:1],6,1-5[12:1]/7,
2,1/8-4[12:1],7,8/2^5[12:1],3,2/8-4[12:1],7,8/1-5[12:1],
2,18,6,45,18,27,3b/6b,,

5,6,4,3,7,5,2,4,
6,5,3,4,5,45,45,,

名前:
コメント:

タグ:

+ タグ編集
  • タグ:

このサイトはreCAPTCHAによって保護されており、Googleの プライバシーポリシー利用規約 が適用されます。

最終更新:2023年01月03日 12:32