Can Do

BPM EASY BASIC ADVANCED EXPERT MASTER
200 2 4 6 9 11

EASY


BASIC


ADVANCED


EXPERT


MASTER

(200)
{8}3,4,3,4,2,4,35,,6,5,6,5,7,5,46,,
1,8,1,8,2,7,18,,18,18,27,27,36,36,45,,
2,1,2,1,3,1,28,,7,8,7,8,6,8,17,,
4,5,3,6,4,6,3,45,,{16}1,8,{8}1,3,6,1b/8b,,,

3,3,4,4,5,5,6,6,2,2,1,1,8,8,7,7,1,1,3,3,5,5,37,,
{4}1-5[16:1],1/7-3[16:1],7/8-4[16:1],8b,
{8}7,7,8,8,1,1,2,2,6,6,5,5,4,4,3,3,8,8,6,6,4,4,2,2,,
18,18,18,18,1b/8b,,,
{1}2q5[1:1]/5<4[1:1],{8},,,,,,

15,26,3/7h[2:1],,{4}3,{8}3,,
37,26,15,,37,15,,26,,48,{4}8,8,8,
{8}48,37,26,,15,48,,2,,
2h[8:3],,,4h[4:1],,6h[4:1],,8h[4:1],,1h[8:3],,,
7h[8:3],,,2,,2-5[16:1],,2,7-4[16:1],,7,
1-5[16:1],,1,8-4[16:1],,,2,,6,,8b,{4},,,{8}

1,1-5[16:1],,7,7-3[16:1],,7/2-6[16:1],,
2,{4},,,{8},
8,8-4[16:1],,2,2-6[16:1],,2/7-3[16:1],,7,,,{4}
1-3[16:1],1-7[16:1],1s5[4:1],1,,
16,25,7-3[8:1]/8-4[8:1],,,{8},
2h[16:14],,,1,1,8,8,7b,,
1h[8:3],,2,2h[8:3],,3,3h[4:1],,
8h[8:3],,7,7h[8:3],,6,6h[4:1],,
4h[8:3],,1,1h[8:3],,7,7h[4:1],,
5v7[8:1],,5,3v1[8:1],,3,,,

1h[8:3],,3,3h[8:3],,5,5h[4:1],,
8h[8:3],,6,6h[8:3],,4,4h[4:1],,
1,1,5,5,,37,37,56,5b/6b,,3b/4b,,1b/8b,,18,,

1h[4:1]/5h[4:1],,,3h[4:1]/7h[4:1],,,{4}26,37,48,15,,{8}
4h[4:1]/8h[4:1],,,2h[4:1]/6h[4:1],,,{4}37,26,15,48,,{8}
1,8,2,7,1-5[8:1]/8,,8,8-4[8:1],,2,2-6[8:1],,7b,,,,{4}
3h[4:1]/5,1b,6h[4:1]/4,8b,{8}
3h[4:1]/5,5,1b,,6h[4:1]/4,4,8b,,
45,,24,24,,57,57,,36,,1-5[16:1]/8-4[16:1],,1b/8b,,,,

34,2,34,5,34,2,34,2,56,7,56,4,56,7,56,,
45,6,45,3,45,3,45,6,34,2,56,7,45,,2b/7b,,,,{4}
1^4[16:1],1-5[16:1],1>5[16:1],1b,
8^5[16:1],8-4[16:1],8<4[16:1],8b,,
3h[4:1]/6h[4:1],,12,8-3[16:1]/7-3[16:1],8b/7b,{8},,

2^7[16:1],,2,6q3[16:1],,6,,
8-4[16:1],,1-5[16:1],,2-6[16:1],,,,,
7^2[16:1],,7,3p6[16:1],,3,,
1-5[16:1],,1,8-4[16:1],,8,,8>4[8:1],,,,,,{4}
1^6[4:1],6^3[4:1],3^8[4:1],8^5[4:1],5-1[16:1],{8},,
37,37,26,26,15,15,48,48,27,,,,
1-6[16:1]/2-6[16:1],,1b/2b,,

3,3,4,4,5,5,6,6,38,2,1,,8-3[16:1]/7-3[16:1],,8b/7b,,
6,6,5,5,4,4,3,3,27,6,3,,1-5[16:1]/2-5[16:1],,1b/2b,,
46,3,46,7,46,3,46,7,35,6,35,2,35,6,35,2,
34,34,56,56,12,12,78,78,{4}
1-4[16:1]/8-5[16:1],1^3[16:1]/8^6[16:1],
1-5[16:1]/8-4[16:1],1>8[1:1]/8<1[1:1],
{1}1b/8b,,,
,,,
,,
E




  • 最後の連打78と12が逆だったので修正しました。 -- 名無しさん (2015-06-14 21:11:41)
名前:
コメント:

タグ:

+ タグ編集
  • タグ:

このサイトはreCAPTCHAによって保護されており、Googleの プライバシーポリシー利用規約 が適用されます。

最終更新:2015年06月14日 21:11