Our Fighting

BPM EASY BASIC ADVANCED EXPERT MASTER
165 2 4 6 9 11

EASY


BASIC


ADVANCED


EXPERT


MASTER

(165){1},
{8}
28,3,4,57,,6,5,24,
,3,4,7-4[8:1]/8-3[8:1],,78,,2,
17,6,4,13,,3,5,68,
,5,3,28,,3,5,4/6<5[8:15],
,,5,,6,,7,,
8,,1,,2,,3,,
26,5,4,37,4,5,26,5,
48,7,6,15,2,3,7,6,

5,4,3h[8:3],,,1,,{16}7,8,
{8}7,6,5h[4:1],,4,,2,3,
4,5,6h[8:3],,,8,,{16}2,1,
{8}2^5[8:1],,7,7^2[8:1],,6,5,4,
3^8[8:1],,6,6^3[8:1],,8,1,2,
3^6[8:1],,8,8^3[8:1],,7,6,5,
4^1[8:1],,7,7^4[8:1],,1,2,3,
{16}4b/8b,,,1b/5b,,,3b/7b,,,,4,5,4,5,4,5,

{8}4,6,8,,17,,,{16}2,1,
{8}2,3,4h[4:1],,5,,8,7,
5,3,1,,28,,,{16}7,8,
7h[4:1],,,,6,,5,4,{8}5,4,2,8,
7^4[8:1],,2,2^7[8:1],,3,4,5,
6^1[8:1],,3,3^6[8:1],,1,8,7,
6^3[8:1],,1,1^6[8:1],,2,3,4,
8b,4b,6b,2b,,{16}8,1,{8}8,,

1<4[4:1]/7,,3,2,1,8,7>4[4:1]/1,,
,5,6,7,8,1,2,3,
46,7,8,15,,37,,2^5[4:1]/6^1[4:1],
,,,,,3,4,5,
16,2,3,4h[4:1]/6,,2,1,8,
47,3,2,1h[4:1]/7,,3,,2h[8:3]/6h[8:3],
,,,,7,5,3,1^6[8:1],
,,4,3,,2v4[8:3]/6v8[8:3],,,
,,,,1b/5b,,3b/7b,,

6h[4:1],5,3h[4:1],4,7h[4:1],8,2,1,
8h[8:5],7,,5-2[8:1],,5,,8,
1h[4:1],2,3h[4:1],4,5^8[8:1],,,,
1,,3,7,15,48,,6-2[8:1],
6h[4:1],,,6,,2,5,6,
78,1,2,3-7[8:1],,13,,4,
5^8[8:1],1^4[8:1],5,1,,8,7,6,
5,4,3,1-5[8:1]/2-5[8:1],,1b/2b,,7,
3h[4:1],4,6h[4:1],5,2h[4:1],1,7,8,
1h[8:5],2,,4-7[8:1],,4,,1,
8h[4:1],7,6h[4:1],5,4^1[8:1],,,,
8,,6,2,48,15,,3<8[4:1]/6>1[4:1],
45,,,,,2,1,8,
7,6-2[8:1],,3-7[8:1],,5-1[8:1],,,
8,,3,4,5,6,7,8-4[8:1],
,58,3,2-6[8:1],,24,,4q1[4:1]/5p8[4:1],
,,,,,{16}4,5,4,5,4,5,
{8}36,,15,37,26,48,,1p3[8:11]/5p7[8:11],
{1},,

{8}1h[4:1]/6,,3,7,4,5,2,17,
,35,,48,,6,{16}3,4,3,4,
{8}2h[4:1]/5,,3,7,4,5,3,28,
,46,,15,,3,{16}6,5,6,5,
{8}7h[4:1]/4,,6,2,5,4,6,17,
,2-6[8:1],1,2,,7-3[8:1],8,7,
,5-1[8:1],6,5,,4-8[8:1],3,4,
,3>6[4:1],6,3,,,{16}8,1,7,2,

{4}8-4[4:3],8,,8,2-6[4:3],2,,2,7-3[4:3],7,,7,
{8}1,,2,1,8,7,,,
{4}4-8[4:3],4,,4,6-2[4:3],6,,6,3-7[4:3],3,,3,
{8}6,4,2,1b/5b,,3b/7b,{16}6,5,6,5,

{8}6h[4:1],5,3h[4:1],4,7h[4:1],8,2,1,
8h[8:5],7,,5-2[8:1],,5,,8,
1h[4:1],2,3h[4:1],4,5^8[8:1],,,,
1,,3,7,15,48,,3<8[4:1]/6>1[4:1],
45,,,,,7,8,1,
2,3-7[8:1],,6-2[8:1],,4-8[8:1],,,
1,,6,5,4,3,2,1-5[8:1],
,14,6,7-3[8:1],,57,,4q1[4:1]/5p8[4:1],
,,,,,{16}4,5,4,5,4,5,
{8}36,,15,37,26,48,,1z5[8:11]/5s1[8:11],
{1},,

{8}
17,6,5,24,,3,4,57,
,5,4,1-6[8:1]/2-5[8:1],,12,,7,
28,3,5,68,,6,4,13,
,4,6,17,,6,4,3^8[8:5]/5^8[8:5],
{1},
{16}3,4,3,4,2,5,2,5,{8}3,,4b/8b,2b/6b,


名前:
コメント:

タグ:

+ タグ編集
  • タグ:

このサイトはreCAPTCHAによって保護されており、Googleの プライバシーポリシー利用規約 が適用されます。

最終更新:2015年06月13日 13:07