サーカス・ギャロップ(創作譜面:NaViDai)

曲名 サーカス・ギャロップ
制作者名 NaViDai
音源 http://www.nicovideo.jp/watch/sm8452029
譜面動画
制作者コメント わたあめ君のMASTER譜面をリスペクトしつつ、手動洗濯のレベルまで難易度を下げたEXPERT譜面を作りました(これでもmaimai最難関レベル…)。
一見訳が分からないと思う部分も意外に捌きやすい配置になっているところが多いです。理論値スコアがとてもキリのいい数字になっているのでそちらにもぜひ注目。
音源はBMSのNORMALの音源を使っています。わたあめ君のMASTER譜面の音源よりもBPMが遅いです。
BPM EASY BASIC ADVANCED EXPERT MASTER
180-181 - - - 12 -

EASY


BASIC


ADVANCED


EXPERT

(180)
{16}4,8,4h[8:3],,,,,,5,1,5h[8:3],,,,,,
3,7,{16}3,,26,,15,,48,,37,,26,,15,,48,,37,,,,,
{32}1,8,7,6,5,4,3,2,1,8,7,6,5,4,3,2,1,8,7,6,5,4,3,2,1b/5,,
{4},,,

{16}7,8,1v3[16:1],,7v5[16:1],,1,,7,,3-7[16:1],,3,,3h[16:8],,,,
8-4[16:1],,8,,8h[16:4],,,,6,5,6,7,6,,
1,8,{8}7-5[16:1],1-3[16:1],7-3[16:1],1-5[16:1],7-2[16:1],1-6[16:1],7,1,
{16}48,37,26,37,48,15,48,37,26,37,48,15,26,,
5,4,{8}3v8[16:1],7v4[16:1],3,7,2-6[16:1],2,2h[4:1],,
{16}3,4,5,6,7,8,1,2,{8}3-8[16:1]/7-4[16:1],26,37,,
{16}5,6,7,8,3,2,1,8,3,4,5,6,1,2,3,4,7,8,1,2,3,4,5,6,
{8}37,15,{16}3/7,6,5,4,{32}8,1,2,3,
{16}2,1,8v6[16:1],,2v4[16:1],,8,,2,,6-2[16:1],,6,,6h[16:8],,,,
1-5[16:1],,1,,1h[16:4],,,,3,4,3,2,3,,
8,1,{8}2-4[16:1],8-6[16:1],2-6[16:1],8-4[16:1],2-7[16:1],8-3[16:1],2,8,
{16}51,62,73,62,51,84,51,62,73,62,51,84,73,,
4,5,{8}6v1[16:1],2v5[16:1],6,2,7-3[16:1],7,7h[4:1],,
{16}6,5,4,3,2,1,8,7,{8}6-1[16:1]/2-5[16:1],73,62,,
{16}8,7,8,7,8,7,8,7,2,3,2,3,2,3,2,3,5,6,4,7,3,8,2,1,
{8}38,12,{64}8b/3,7,6,5,,,,,{8},61,87,{64}1b/6,2,3,4,,,,,{8},
45,,{64}1/8b,27,36,54,,,,,{8},6,5,3,4,{32}7,6,5,4,3,2,1,8,
{8}7-4[16:1],1,7-3[16:1],8,7-2[16:1],1,7-5[16:1],8,
7-4[16:1],1,7-3[16:1],8,7-2[16:1],1,7,8,
{16}7h[8:3],,,,6,5,8h[8:3],,,,1,2,
7h[8:3],,,,5,4,8h[8:3],,,,2,3,
7h[8:3],,,,6,5,8h[8:3],,,,1,2,3,,
{8}34,45,56,67,78,81,12,23,
3q8[8:1],4,5,6,7q4[8:1],8,1,2,
{16}3,4,5,6,7,8,1,2,4,3,2,1,6,7,8,1,
4-1[16:1]/8-5[16:1],37,26,,{4}4b/8b,{16}
5-8[16:1]/1-4[16:1],62,73,,{4}5b/1b,{16}
3,2,6,7,1,8,4,5,27,,45,45,45,,45,,
5,6,7,8,1,2,3,4,{32}8,7,6,5,4,3,2,1,8,7,6,5,4,3,2,
{8}1-5[16:1],7,1-4[16:1],8,1-6[16:1],7,1^3[16:1],8,
1-5[16:1],7,1-4[16:1],8,1-6[16:1],7,1,8,
{16}1h[16:5]/2,,,,2,3,8h[16:5]/7,,,,7,6,
1h[16:5]/2,,,,3,4,8h[16:5]/7,,,,6,5,
1h[16:5]/2,,,,2,3,8h[16:5]/7,,,,7,6,
1h[16:5]/2,,,,3,4,8,7,6,8,7,6,8,7,6,8,7,6,
1h[16:5]/2,,,,2,3,8h[16:5]/7,,,,7,6,
1h[16:5]/2,,,,3,4,8h[16:5]/7,,,,6,5,
{8}48,26,48,26,15,37,15,37,15,37,
8h[2:1],1,2,3,4h[2:1],5,6,7,{16}8,7,6,5,4,3,2,1,
{8}48,37,26,15,48,2h[4:1]/6,,3,51,7h[4:1]/3,,6,,
{16}3,4,2^5[16:1],4,1,,{64}1b,8,7,6,,,,,{16},,,47,,,,,
6,5,7^4[16:1],5,8,,{64}8b,1,2,3,,,,,{16},,,25,,,,,
2,3,1^4[16:1],3,8,,{64}5b,6,7,8,,,,,{8},{16}
7,6,8^5[16:1],6,1,,{64}4b,3,2,1,,,,,{8},
{16}4,5,3,5,2,5,1,5,8,5,7,5,6,5,4,5,3,5,
2,2,1,1,8,8,7,7,6,6,5,5,4,4,3,3,2,2,3,3,4,4,5,5,6,6,7,7,8,8,1,1,
23,,
{32}8b,7,6,5,4,3,2,1,8,7,6,5,4,3,2,1,{16},,,

{16}7,8,1v3[16:1],,7v5[16:1],,1,,7,,3-7[16:1],,3,,3h[16:8],,,,
8-4[16:1],,8,,8h[16:4],,,,6,5,6,7,6,,
1,8,{8}7-5[16:1],1-3[16:1],7-3[16:1],1-5[16:1],7-2[16:1],1-6[16:1],7,1,
{16}48,37,26,37,48,15,48,37,26,37,48,
15,48,37,26,37,48,15,48,37,26,37,48,
15,48,37,26,,,
5,4,{8}3v8[16:1],7v4[16:1],3,7,2-6[16:1],2,2h[4:1],,
{16}3,4,5,6,7,8,1,2,{8}3-8[16:1]/7-4[16:1],26,37,,
{16}5,6,7,8,3,2,1,8,3,4,5,6,1,2,3,4,7,8,1,2,3,4,5,6,2,1,8,7,6,5,4,3,
4,3,2,1,8,7,6,5,2,3,4,7,6,5,1,2,3,8,7,6,8,1,2,1,8,7,
5,4,3,4,5,6,1,8,7,6,5,4,3,2,1,
{32}8,7,6,5,4,3,2,1,8,7,6,5,4,3,2,
{1}1b/5,{2},

(181)
{16}1,2,3,4,5,6,7,8,
18,,,,1,,,,8,,,8,,8,,,
{16}2,,,,2,,,,7,,,7,,7,,,
{16}3,,,,3,,,,6,,,6,,6,,,
{8}1,8-4[16:1],2,8-5[16:1],1,8-3[16:1],2,8^6[16:1],1,
8-4[16:1],2,8-5[16:1],1,8-3[16:1],2,8^6[16:1],1,
8-4[16:1],2,8-5[16:1],1,8-3[16:1],2,8^6[16:1],1,8,
{16}4,5,3,5,2,6,1,7,8,,,,18,,27,,
5,4,6,4,7,3,8,2,1,,,,18,,27,,
4,5,3,5,2,6,1,7,8,,,,18,,27,,
5,4,6,4,7,4,8,4,1,4,2,4,34,,,,
4,5,3,5,2,5,1,5,8,5,7,5,65,,,,
5,4,6,4,7,4,8,4,1,4,2,4,34,,
{8}86,37,25,13,86,34,17,
65,13,62,74,86,13,65,82,
34,86,37,25,13,86,34,17,
24,12,18,87,36,14,27,46,
75,87,81,12,63,85,72,53,
24,12,18,87,36,14,27,46,
{16}2,3,8,7,2,1,5,6,13,,86,,34,,17,,
7,6,1,2,7,8,4,3,86,,13,,65,,82,,
2,3,8,7,2,1,5,6,13,,86,,34,,17,,
{12}8,4,6,2,7,3,1,5,3,7,2,6,8,4,6,2,7,3,
8,4,6,2,7,3,
{24}1,2,3,4,8,7,6,1,2,3,4,8,7,6,
1,2,3,4,8,7,6,1,2,3,4,8,7,6,
1,2,3,4,5,6,7,6,5,4,3,2,1,8,
1,2,3,4,5,6,7,6,5,4,3,2,1,8,
1,2,3,4,5,6,7,6,5,4,3,2,1,8,
{16}7,6,5,4,3,2,1,8,7,6,5,4,32,1,8,7,6,5,4,3,2,1,
{8}8-4[16:1]/7,25,8b,,,,,,,,,,,,
{1},,,,E

MASTER



  • あいうえお -- あいうえお (2015-06-27 11:55:45)
名前:
コメント:

タグ:

+ タグ編集
  • タグ:

このサイトはreCAPTCHAによって保護されており、Googleの プライバシーポリシー利用規約 が適用されます。

最終更新:2015年06月27日 11:55