ガラテアの螺旋

BPM EASY BASIC ADVANCED EXPERT MASTER Re:MASTER
200 3 6 8 12+ 14 14+

EXPERT MASTER Re:MASTER
譜面制作者 rioN チャン@DP皆伝 サファ太

EASY


BASIC

(200){1},,,,,,,,,,{8},
{4}3,,,3,
{2},6,
{4},6,,,
{4}3,,,3,
{2},6,
{4},6,,,
{2},1,
{4}2,2,,3,
{4}3,,8,8,
{4}7,7,6,,
{4}4/5,,4,4,
{4},3,3,,
{4}2,2h[2:1],,,
{8},1/2,,,,,,7/8,
{8},,,,,5/6,,,
{2},3/4,
{4},5/6,,,
{4}7/8,,,1/2,
{2},3/4,
{4},2/5,,,
{4}1/2,,,3/8,
{2},7/8,
{4},1/6,,,
{8}6,,,6,,,5,,
{8},5,,,5/6,,,,
{4},4/7,,,
{4}7/8,,,1/6,
{2},1/2,
{4},3/8,,,
{4}3,3,,4,
{4}4,,5,5,
{8},,,,,4,,,
{8}4,,,5,,,5,,
{8},4,,,4,,,4/5,
{8},,,,6,,,6,
{8},,3,,,3,,,
{8}6,,,6,,,3/6,,
{8},,,4-8[8:11],,,,,{1},,
{8},,,,1,,,1,{1},
{1}1b/8b,,
{4}2,,,4/5,
{2},7,
{4},4/5,,,
{4}1/2,,,1/8,
{2},7/8,
{4},2/7,,,
{8}7,,,7,,,1/8,,
{8},,,,2,,,2,
{4},1/8,,,
{8}3,,,3,,,4,,
{8},4,,,5,,,5,
{8},,6,,,6b,,,
{8}7,,,8,,,1/7,,
{8},,,,2,,,1,
{4},2/8,,,
{8}6,,,6,,,5,,
{8},5,,,4,,,4,
{8},,3,,,3b,,,
{8}3,,,4,,,3/5,,
{8},,,,6,,,5,
{4},4/6,,,
{8}5/6,,,5/6,,,3/4,,
{8},3/4,,,2,,,2,
{8},,1,,,1/8,,,
{4},8h[4:3],,,
{8},,,,,,,1/8,
{8},,,1h[4:3],,,,,{1},
{2},2/7,
{4},2h[4:3]/7h[4:3],,,
{2},1/8,
{8},,,5/6,,,,,
{4},3/4,,,
{8},4/5,,,3/6,,,,
{2},7,
{8},,,1/8,,,,2,
{8},,2,,,3,,3,
{8},,4,,4,,,5,
{8},,,,4/5,,,3/6,{1},
{2},4h[1:3],{1},,
{2},5,
E

ADVANCED

(200){1},,,,,{8},
{4}2,2,3,3,
{4}4,4,3/5,,
{4}7,7,6h[2:1],,
{8}5,,,3h[8:3],,,4,,
{8},5h[8:3],,,4,,,,
{8}3h[8:3],,,4,,2,2,,
{8},,,,6h[8:3],,,5,
{8},7,7,,,,,,
{8}2h[8:3],,,1,,3,3,,
{8},,,,7h[8:3],,,8,
{8},6,6,,4-8[2:1],,,,
{4},,1/7,1,
{4}2,2,3,3,
{4}2/4,,2/8,8,
{4}7,7,6,6,
{4}5/7,,1/8,2,
{4}3,4,5,6,
{1}7-3[2:1],
{8},,2,2,,3,3,,
{8}4,4,,5,5,,6,6,
{8},7,7,,6,6,,5,
{8}5,,4,4,,3,3,,
{8}2,2,,1,1,,8,,
{8}7,,6,,4/5,,,3/6,
{4},2/7,,,
{8}1/8,,,2/7,,,3/6,,
{8},,,,3/4,,,5/6,
{4},2/7,,,
{4}6,7,8,1,
{8}2,,3,,4/5,,,5/6,
{4},4/7,,,
{8}4/5,,,3/4,,,2/5,,
{8},,,,5/6,,,3/4,
{4},2/7,,,
{4}1/8,7,6,5,
{4}4,3,2q7[4:3],,
{4},,,6,
{4}5/6,3,3/4,2,
{4}1/2,8-4[2:1],,,
{4},,3,3/4,
{4}6,5/6,7,7/8,
{1}1-5[2:1],
{8},,,6h[2:1],,,,5,
{8},,8,8,,7,,6,
{8},5,4,5,4,5,,3h[8:5],
{8},,,,4,,,6h[8:9],{1},
{1}5s1[4:5],,
{8}1,,,2,,,3/4,,
{8},,4/5,,6,,,7,
{4},1/8,,2/7,
{8}1h[8:3],,,8,,,1h[8:3],,
{8},7,,,1h[8:3],,,6,
{8},,1h[8:3],,,5,,,
{8}8,,,7,,,5/6,,
{8},,4/5,,3,,,2,
{4},1/8,,2/7,
{8}8h[8:3],,,4,,,8h[8:3],,
{8},3,,,8h[8:3],,,2b,
{8},,8h[8:3],,,1b,,,
{8}1,1,,2,,3,3,,
{8},,4/5,,6,6,,7,
{8},8,8,,,,2/7,,
{8}3h[8:3],,,4,,,6h[8:3],,
{8},5,,,7h[8:3],,,8,
{8},,2h[8:3],,,1,,,
{8}8,8,,7,,6,6,,
{8},,4/5,,3,3,,2,
{8},1,1,,,,2/7,,
{8}6h[8:3],,,5b,,,3h[8:3],,
{8},4b,,,5h[8:3],,,4,
{8},3,,4,,5,,6,
{8},6h[8:7],,,,,,,
{8}4h[8:7],,,,,,,5,
{8},3,,3h[2:1],,,,2<6[8:7],{1},
{4},,5,6,
{1}7>3[8:7],
{8},,,,4/5,,,1/8,
{8},,,2/7,,1/8,1/8,,
{4},2-5[8:3],,,
{8},5/6,,,3/4,,,,
{1}2>7[4:3],
{8},,,8h[2:1],,,,1,
{8},,1,1,,2,,3,
{8},4,5,4,5,4,,6h[8:5],
{8},,,,5,,,3h[8:37],{1},
{2},{1}7h[1:3],,,,
E

EXPERT

(200){8}3,
{8}4,3,4,3,4,,3,3/4,
{8},4,4/5,,,,3-6[4:1],,
{8},,,,6,6,,5,
{8}5,,6,6,,4,5,4,
{8}5,3/6,,,,,,7,
{8}8,7,8,7,8,,7,7/8,
{8},8,1/8,,,,7-2[4:1],,
{8},,,,2,2,,1,
{8}1,,2,2,,8,1,8,
{8}1,2/7,,,,,,,
{8}3h[8:3],,,2h[8:3],,,1>7[2:1],,
{2},8q5[2:1],
{4},7,,4,
{8}6h[8:3],,,7h[8:3],,,8<2[2:1],,
{2},1p4[2:1],
{4},2,,5,
{4}2b/7b,,1,2,
{4}3,4,5,6,
{4}7,8,4,3,
{4}2,1,8,7,
{8}6,,5,,4,5,4,5,
{8},3/4,,5/6,,7/8,,1/2,
{8},8,1-4[4:1],,,,,,
{8},6,5,6,3,4,3,6,
{8}4,6,3,5,3,5,4,5,
{8}3,6,3,6,2,1,2,7,
{8}8,7,2,8,2,7,1,7,
{8}1,8,1,8,7,6,5,4,
{8}3,2,1,8,1h[8:3],,,2h[8:3],
{4},3,4,5/7,
{8}8h[8:3],,,7h[8:3],,,6,,
{8}5,,2/4,,3h[8:3],,,1h[8:3],
{4},7,7,5/7,
{8}6h[8:3],,,8h[8:3],,,2,,
{8}2,,2/4,,3-6[4:1],,,1^6[4:1],
{4},3,4,5,
{8}6-3[4:1],,,8^3[4:1],,,6,,
{8}5,,4,,1>5[4:1],,,8<4[4:1],
{4},1,8,1/8,
{8}8,1,8,1,,7/8,,1/2,
{8},3/4,,5/6,,4,5-8[4:1],,
{8},,,,,3,4,3,
{8}6,5,6,3,5,3,6,4,
{8}6,4,5,4,3/6q3[8:3],,,,
{8},,,7,8,7,2,1,
{8}2,6,8,6,3,1,3,8,
{8}1,8,7/2q7[8:3],,,,,,
{8}8,,,3/6,,,,1/8,
{8},,4/5,4/5,,2/5,,4/7,
{8},5,4,5,4,5,,3/6,
{8}3/6,,,,7-4[4:1],,,2q5[8:5],{1},
{1}1b/8b,,
{8}3,3,,2/4,,3,3,,
{8},8,7,6,3/5,3/5,,4,
{8},3/5,3/5,,,,2/7,,
{8}1-5[4:1],1,,8-6[4:1],8,,1-3[4:1],1,
{8},8-4[4:1],8,,1^4[4:1],1,,8^5[4:1],
{8}8,,1s5[4:1],1,,6,,,
{8}6,6,,5/7,,6,6,,
{8},1,2,3,4/6,4/6,,5,
{8},4/6,4/6,,,,2/7,,
{8}8-4[4:1],8,,1-3[4:1],1,,8-6[4:1],8,
{8},1-5[4:1],1,,8^5[4:1],8,,1^4[4:1],
{8}1,,8z4[4:1],8,,3,,,
{8}3-6[4:1],3,,7,,8-5[4:1],8,,
{8},4,3,2,1-4[4:1],1,,6,
{8},7-2[4:1],7,,,,3,,
{8}8,7,6,1,2,3,7,6,
{8}5,2,3,4,6,5,4,3,
{8}4,5,1,8,7,8,1,2,
{8}6-3[4:1],6,,2,,1-4[4:1],1,,
{8},5,6,7,8-5[4:1],8,,3,
{8},2-7[4:1],2,,,,6,,
{8}1,3,5,8,6,4,2,8,
{8}5,7,1,4,2/7,2/7,1/8,1/8,
{8},4/5,,2/3,,6/7,,1/8,
{8},2,2h[4:3],,,,,,
{8}5h[8:7],,,,,,,8,
{8}7,6,5,4h[2:1],,,,5,
{8}6,7,7q2[2:1],,,,,,
{8},,,,1,1h[4:1],,8h[8:3],
{4},1q4[2:1],,,
{8},,,,8,1,8,2/7,
{8},,,1/3,,,2/4,,
{4},3v6[4:1],,,
{8},5/7,,,6/8,,,5/7,
{8},3/6,3/6,,,5-1[4:1],,,
{8}4-8[4:1],,,5,,,,7/8,
{8},,1/2,,3/4,3/4,,1/8,
{8},5/6,5/6,,3,2/4,,6,
{8}5/7,,,,3/6,,,4/5,
{1}5/4s8[4:3],
{16},,,,,,,,1,8,1,8,1,8,1,8,
{16}1,8,1,8,1,8,1,8,1,8,1,8,1,8,1,8,
{16}1,8,1,8,1,8,1,8,1,8,1,8,1,8,1,8,
{16}1,8,1,8,1,8,1,8,2b,
E

MASTER

(200)
{8}4,5,6,6,27,{16}1,8,{8}1,7,
68,,2,13,,3,,2,
1,8,7,8^6[8:1],1,{16}1,2,
{8}3,,1,27,,3,7,4,8,
2,1,8,1h[8:3],,,
{16}5,4,3,2,1,8,7,6,

{8}25,6,26,7,{16}1,8,{8}1,7,
68,,2,13,,35,,25,
1,38,7,3/8^6[8:1],1,{16}18,2,
{8}3,,18,27,,45,1,45,
8,7,1>5[8:1],8,7h[8:3],,,
{16}4,3,2,1,8,7,6,5,

{4}
4h[4:9]/7b,,,8,,,1,,,2,,,
{8}
1q2[2:1]/5,,6,7,8,,{4}5,,,5,2,6,4,7,{16}2,7,2,7,1,2,3,4,5,6,7,8,

{8}
1-5[8:1],7,1,,2-6[8:1],8,2,,3-7[8:1],5,3,,4-8[8:1],6,4,,
7-3[8:1],1,7,,6-2[8:1],4,6,,5-1[8:1],3,5,3,7,{16}1,8,1,8,1,8,

{8}1,7,2,8h[4:1],,2h[4:1],,7h[4:1],
,3h[4:1],,6h[4:1],,4>5[8:3],4,,
,,,,,28,1^3[8:1],8,1,7^5[8:1],1,7,8^2[8:1],7,8,
7-3[8:1],8,7,8^2[8:1],7,8,7,
1^3[8:1],8,1,8^6[8:1],1,8,
2^8[8:1],4,2,4^6[8:1],2,4,
3^1[8:1],4,3,5^7[8:1],4,5,4,
6,{16}4,5,4,5,3,2,1,8,15,26,37,48,

{4}
1b/5q4[4:3],,,4>5[4:3],,,
5q7[4:3],,,7s3[4:3],,,
3<1[4:3],,,1s5[4:3],,,
5>8[4:3],6,7,8>5[4:3],7,6,
5q8[4:3],,,8<1[4:3],,,
1q3[4:3],,,3s7[4:3],,,
7>3[4:1],3<7[4:1],7>3[4:1],3,7,{32}4b,3,2,1,8,7,6,5,

{8}
48,8-4[8:1],1,1-5[8:1],,7-4[8:1],,2-5[8:1],
,6,,3,,5,4>5[4:1],,
,,,,,5,5,5,6,6,6,
{16}78,1,72,3,84,5,74,3,27,1,
{8}6,3,2,1,{16}8,7,6,5,4,3,2-6[8:1],1,8,7,{8}6,,

3,7h[4:1],6,6,2h[4:1],3,3,8h[4:1],7,7,1h[4:1],2,2,8,
1,{16}2,3,4,5,6,7,8,1,26,37,48,5,4,3,2,1,8,7,

{4}6,45,27,{8},78,{4}12,27,45,{8}36,
5,4,3,27,,18,18,,
27,8,1,,,27,

{16}
1,8,7,6,7,8,1,2,3,4,5,6,7,8,1,2,
{1}3h[4:7]/7h[4:7],,

{8}
2,3,,3,,4,3,,,2,1,8,
7,6,,6,,5,6,,,,2b,,
8,7,6,8,7,6,5,6,7,6,7,8,
1,2,3,1,2,3,4,3,2,2,1,,

27,36,,36,,45,36,,,27,18,18,
27,36,,36,,45,36,,,,2b,,
8,7,6,8,7,6,{16}15,2,{8}36,7,6,{16}17,2,{8}38,
7,1-5[8:1],7,1,8-3[8:1],2,8,1-6[8:1],7,1,8,2,

1h[8:3]/7,6,,6,,5,16,,,7,8,1,
8h[8:3]/2,3,,3,,4,38,,,,2b,,
7h[4:1]/1,2,3,7h[4:1]/1,2,3,7h[4:1]/4,3,2,7h[4:1]/3,2,1,
2h[4:1]/8,7,6,2h[4:1]/8,7,6,25,6,{16}71,2,73,4,85,4,3,2,

{8}
1h[8:3]/7,6,,6,,5,68,,,7,8,1,
8h[8:3]/2,3,,3,,4,38,,,,2b,,
1,2,3,1,2,3,{16}48,7,{8}36,2,3,{16}28,7,{8}16,
27,1-5[8:1]/8,,1/8-4[8:1],,8/2-5[8:1],,2/7-4[8:1],,7/3q5[8:3],
,,,6<5[8:3],6h[4:3],,
,,,,{16}4,3,2,1,48,15,26,37,
{8},,,6,7,8,
1,8h[2:1],,,,3,7,18,2-5[8:1]/7,18,,8b,,,

1-4[8:1],4-1[8:1],1-6[8:1],6-3[8:1],,,5,4,
5<2[4:1]/4h[8:7],,,,,,,{16}7,8,
1,2,3,4,15,26,37,48,

{8}1b/5,4,7-4[8:1],4-7[8:1],7-2[8:1],2-5[8:1],,,,4,27,,
6-3[8:1],3-7[8:1],,{16}8,1,2,3,4,5,48,37,26,15,8,7,

{8}6,,45,36,,3-8[8:1],8-5[8:1],,,7,8,1,
27,,,{16}15,26,37,48,37,26,
{8}15,,28,,2v5[8:1]/6v3[8:1],3^8[8:1]/5^8[8:1],,,
,,26,,18,,,45,27,36,18,,45,18,,
1-4[8:1],8,1,8-5[8:1],1,8,
{16}2,3,4,5,6,7,8,1,8,7,6,5,4,3,
8,7,6,5,1,2,3,4,7,6,

1b,8,2,7,1,8,2,7,1,8,2,7,1,8,2,7,
1,8,2,7,1,8,2,7,1,8,2,7,1,8,2,7,
1,8,2,7,1,8,2,7,1,8,2,7,1s5[8:1]/8z4[8:1],18,18,18,
{1},,,,,,E


Re:MASTER

(200){8}
3,3,4,5,6h[8:3]/3,,5,5,4h[4:1]/6,,5,4h[2:1]/3,,,,2-4[8:1],
4-6[8:1],,,8,8,{16}8,1/7,{8}6h[4:1]/2,,5,4h[4:1]/5,,5,
4h[4:1]/3,,3,3,4,5,4h[8:3]/6,,,{16}7,8,1,2,3,4,5,6,

{8}
7h[4:1]/4,,3,5h[4:1]/4,,4,6,
5h[4:1]/7,,6,5h[4:1]/4,,1,,7V53[4:1],
5,,,1,1,{16}1,2/8,{8}3h[4:1]/7,,4,4h[4:1]/5,,5,
4h[4:1]/3,,3,3,4-1[8:1]/2,5,6h[8:3]/4,,,{16}2,1,8,7,6,5,4,3,

{8}
6h[4:3]/2b,,,5,5,,3h[4:3],,,4,4,,5,,,
4V28[8:3]/6,6-4[4:1]/4,,,,,,{128}3,4,,,{32},,,{8},
2h[4:3]/5,,,1,1,,7h[4:3],,,8,{4}8,
2V41[2:1],4,1-5[4:1],5V38[8:3],7-3[8:1],,

{16}1/4,2,3,4,5/8,7,6,5,
{8}
2/4,,5,6,4/7,6,5,6,4/7,6<3[8:3],5,4/6,,,,,
4,3,4,2/5,4,3>6[8:3],4,3/5,,,,,
{16}3/6,5,4,5,4,5,4,5,
{8}5h[4:1]/4,,3,
2-5[8:1]/5,,4-7[8:1],,
1-5[8:1],,4-8[8:1],,2,,
{16}4>5[2:1],8,{8}4,,,,,,,

5h[4:1]/3,3,3,5h[4:1]/6,6,6,5h[4:1]/3,3,3,3b/6b,,
4h[4:1]/2,2,2,4h[4:1]/5,5,5,4h[4:1]/2,2,3,
5h[4:1]/7,7,6,5h[4:1]/3,3,4,5h[4:1]/6,7,7,
4h[4:1]/3,2,2,4h[4:1]/6,6,5,4h[4:1]/3,2,2,1/4,
{16}1/5,2,3,4,5-1[8:1]/1,8,7,6,

{4}2h[4:3]/5,,,8V62[2:1],1,2<4[4:5],{8}5,,,5,
{4},1h[2:1],,,1V72[2:1]/5,7,2-6[4:1],6V84[2:1],8,4,
{8}5,5h[2:1],4,3,2,3h[4:3],5,5,6,7,6,5,
{4}5h[4:3]/2,,,2V48[4:1],4,8>6[1:1],{8}5,,,5,
{4},8h[4:3],,5^3[4:1],3^8[4:1],8<4[4:1],4>4[4:1],8,,

{32}3,2,1,8,7,6,5,4,{8}3h[4:1]/7,,4,
{4}4-7[8:1]/2,2-5[8:1],4-8[8:1],1-5[8:1],6,
{16}8,4,{8}8<1[4:1],,,,,,,

5h[4:1]/4,3,3,5h[4:1]/7,7,6,
4h[4:1]/3,2,2,4h[4:1]/6,6,5,2/4,4<8[16:3]/2,1/4,
{16}1,2,3,4,1,2,3,4,1/5,2/6,{8}3b/7b,,
5h[4:1]/8,7,6,5h[4:1]/4,3,2,
5h[4:1]/6,7,8,5h[4:1]/2,3,4,5/6,5>1[16:3]/7,5/8,
{16}8,7,6,5,8,7,6,5,4/8,3/7,2/6,1/5,4/8,7,6,5,4,3,

{2}2h[4:1]/6h[4:1],{8}4h[4:1]/8h[4:1],,,
3/5,3-5[8:1]/5-7[8:1],,5-1[8:1]/3,,8,,
8h[2:1],1,2,3,4,,8,2h[4:1]/6h[4:1],,,1,3h[4:1]/7h[4:1],,,3/7,
{16}1,2,3,4,2/5,3,4,5,3/6,4,5,6,4/7,5,6,7,
{1}4h[4:7]/8h[4:7],,

{8}
2/6,6h[2:1]/2,,4h[4:1],,,4/6,,,5h[8:1],,,
3/7,3h[2:1]/7,,5h[4:1],,,3/5,,,,{128}4h[1024:1],5h[1024:1],,,{32},,,{8},
3h[4:1]/4h[8:1],,,3h[8:1]/4h[4:1],,,4h[4:1]/5h[8:1],,,
4h[8:1]/5h[4:1],,,5h[8:1]/6h[4:1],,,5h[4:1]/6h[8:1],,,
4h[8:1]/5h[4:1],,,,{128}6h[1024:1],4h[1024:1],,,{32},,,{8},

3/7,3h[2:1]/7,,5h[4:1],,,3h[4:1]/5h[2:1],,,,,,
2/6,6h[2:1]/2,,4h[4:1],,,4h[4:1]/6h[2:1],,,,,,
5h[8:1]/7h[4:1],,,4h[4:1]/6h[8:1],,,3h[8:1]/5h[4:1],,,
2h[4:1]/4h[8:1],,,5h[4:1]/7h[8:1],,,2h[4:1]/4h[8:1],,,
3h[8:1]/8h[4:1],,,,1b/7b,,

2/6,2-4[8:1]/6-4[8:1],,2/6,,2-6[8:1]/6,6-2[8:1]/2,,,8,4/8,,
2/6,2V46[4:1]/6V42[4:1],,2V86[4:1]/6V82[4:1],,,,,,,2/6,,
4/7,7^4[4:1]/4,3,3,2,2,
2/5,2^5[4:1]/5,6,7,7,8,
5/8,8^5[4:1]/5,3,2,2,2,
{16}1/5,2,3,4,1/5,8,7,6,{8}1/5,,

3/7,3-5[8:1]/7-5[8:1],,3/7,,7-3[8:1]/3,3-7[8:1]/7,,,1,1/5,,
3/7,3V57[4:1]/7V53[4:1],,3V17[4:1]/7V13[4:1],,,,,,,3/7,,
4h[4:1]/7,6,5,4h[4:1]/1,2,3,
{16}4/5,6,7,8,1/5,4,3,2,{8}1b/5b,,

1/8,8q4[4:1]/1,,4<8[4:1],,8p4[4:1],,4>8[4:1],,8,,4,,
1,1^4[8:1]*^6[8:1],,,,,,{16}5,5,{8}4>6[4:1],,,,,,
8-4[8:1],4-8[8:1],8<2[4:1],3,3,,,,
1-5[8:1],5-1[8:1],1,6,6,
{24}2,3,4,5,6,7,8,1,2,3,4-8[8:1]/8-4[8:1],,{8},,,,

2/6,2V46[4:1]/6V42[4:1],,2<4[8:3]/6<4[8:3],,,,,,,
{24}1,2,3,7,6,5,2,3,4,8,7,6,1,2,3,7,6,5,
{8}
4h[4:1]/2,,3,4h[8:3]/5,,6,5,
4h[4:1]/2,,3,4h[4:1]/5,,6h[4:1],,
1-3[8:1]*-7[8:1],3V51[4:1]/7V51[4:1],,,,,
{16}2/8,3/7,{8}4h[4:1]/6h[4:1],,,3h[4:1]/5h[4:1],,,2/6,2/6,2/6,
8V24[4:1]*-6[8:1]/4,6V48[4:1]/2,,,,,
{16}3/7,2/6,1/5,4/8,1/5,2/6,{8}3h[8:1]/7h[8:1],,3/7,,
5-3[8:1]*V71[4:1]/1,3V15[4:1]/7,,,,,
4h[8:1]/8h[8:1],,4/8,,
4-2[8:1]*-6[8:1]/8,2V84[4:1]/6V84[4:1],,,,,
{16}3/5,2/6,{8}1h[4:1]/7h[4:1],,,2/8,
8-4[8:1]/2,,3,3,

{16}
2,4,2,7,5,7,2,4,2,7,5,6,2,4,3,
7,1,8,2,7,1,8,2,7,
1b,2,3/7,6,2/5,3,4/8,7,
1/6,2,3/7,6,2/5,3,4/8,7,
1/6,2,3/7,6,2/5,3,4/8,7,
1/6,2,3/7,6,2/5,3,4/8,7,
1/6,2,3/7,6,
1/5,2,3/8,7,6,4/5,3,2,
1s5[8:1]*v4[8:1]/8,1/8,1/8,
{1}1/8,,,,E


  • マスター譜面でエラーが出てしまう -- 名無しさん (2020-06-19 00:02:35)
  • 最後に,をいっぱい並べてEを付けると出来た -- 名無しさん (2020-06-19 03:13:29)
  • ↑よし、それ反映させときましょう! -- 嵐雅 (2021-05-09 13:54:23)
  • あの地獄のRe:MASTERはサファ太さんが作ったものでしたね。 -- 嵐雅 (2021-05-09 13:55:53)
名前:
コメント:

タグ:

+ タグ編集
  • タグ:

このサイトはreCAPTCHAによって保護されており、Googleの プライバシーポリシー利用規約 が適用されます。

最終更新:2022年01月30日 19:36