究極焼肉レストラン!お燐の地獄亭!

BPM EASY BASIC ADVANCED EXPERT MASTER Re:MASTER
185 2 6 6 10+ 12 -

EXPERT MASTER Re:MASTER
譜面制作者 rioN 某S氏 -

EASY


BASIC

(185.0){1},,,,,,,,
{2}4,4,
{2}4,4,
{2}3,3,
{4}3,3,3,,
{2}5,5,
{2}5,5,
{2}6,6,
{4}6,6,6,,
{2}5,4,
{4}3,3,3,,
{2}5,6,
{1}7/8,
{2}1/2,1/2,
{2}7/8,7/8,
{1}4-1[4:3],,
{1}7h[1:1],,
{1}8h[1:1],,
{1}1h[1:1],,
{2}2,2,
{1}1b/8b,
{2}3,4,
{1}3/5,
{2}6,5,
{1}4/6,
{2}7,8,
{1}1/7,
{2}2,1,
{1}2/8,
{2}1,1,
{4}8,8,8,,
{1}2/7,,
{2}3,4,
{2}5,6,
{2}7,8,
{4}1,8,1/8,,
{2}3,3,
{2}6,6,
{2}3/4,5/6,
{4}7/8,7/8,7/8,,
{4}1,1,1,,
{4}2,2,2,,
{4}8,8,8,,
{1}7/8,
{2}5/6,5/6,
{2}3/4,3/4,
{1}4-1[4:3],,
{4}8,8,8,,
{4}7,7,7,,
{4}1,1,1,,
{1}1/2,
{1}3h[2:1]/4h[2:1],
{1}5h[2:1]/6h[2:1],
{1}5-8[4:3],,
{1}1b,,
{2}8,7,
{4}6,6,6,,
{4}3,3,4,,
{4}6,6,5,,
{4}4,4,3,,
{1}1/8,
{4},1/8,
E

ADVANCED

(185.0){1},,,,,,,,
{2}4,5,
{2}4,5,
{2}4,5,
{4}4,4,4,,
{2}3,6,
{2}3,6,
{2}3,6,
{4}3,3,3,,
{4}2,2,3,3,
{4}4,4,4,,
{4}6,6,7,7,
{4}8,1,1-4[8:3],,
{8},,,,,5-8[8:3],,,{1},
{8},,1/8,,,1/2,,,
{2}7/8,1s5[4:5],{1},,
{4}6,7,8,1,
{4}2,3,4/5,,
{4}3,2,1,8,
{4}7,6,4/5,,
{4}4/5,3/6,2/7,1-4[2:1]/8-5[2:1],{1},
{4}6,6,5,5,
{4}4/7,5/6,5b/6b,,
{4}3,3,4,4,
{4}2/5,3/4,3b/4b,,
{4}2,2,1,1,
{4}3/8,1/2,1b/2b,,
{4}7,7,8,8,
{4}1/6,7/8,7b/8b,,
{2}1/8,2/7,
{4}3/6,3/6,3/6,4b/5b,{1},
{2},1h[4:1]/8h[4:1],
{4}7,7,6,6,
{4}5,5,4,4,
{4}3,3,2,2,
{4}1,8,1/8,,
{4}1,1,8,8,
{4}2,2,7,7,
{2}1/8,1/8,
{4}2/7,3/6,4/5,,
{4}4,4,3,3,
{4}2,2,1,,
{4}8,8,7,6,
{4}5,4,4-1[8:3],,
{8},,,,,8-5[8:3],,,{1},
{4},5<4[1:1],,,{1},
{4}5,5,6,6,
{4}7,7,8,,
{4}1,1,2,3,
{4}4,5,5-8[8:3],,
{8},,,,,1-4[8:3],,,{1},
{8},,3/6,,,2/7,,,
{2}1/8,8p5[4:5],{1},,
{4}4,3,2,1,
{4}2,3,4/5,,
{4}5,6,7,8,
{4}7,6,4/5,,
{4}5,6,4,3,
{4}4^1[1:1]/5^8[1:1],{1},,
E

EXPERT

(185.0){1},,,,,,,,
{4}4,1/2,3,7/8,
{4}4,2/8,3,1/7,
{4}4,1/3,3,6/8,
{4}4,1/2-6[8:1],,,
{4}5,7/8,6,1/2,
{4}5,1/7,6,2/8,
{4}5,6/8,6,1/3,
{4}5,8/7-3[8:1],,,
{8}1/2,,3/8,,2,1,2,,
{8}7/8,,1/6,,7,8,7,,
{8}4/5,,3/6,,4,5,4,,
{8}1/2,,7b,,7b,3,1,2v7[8:1],
{8},,,,,6,8,7v2[8:1],
{8},,,,,4,5,3/6,
{8},,1b/8b,,,1b/2b,,,
{4}7b/8b,,1/8,2/7,
{4}3,4,5,4/6,
{4}3,7,2/8,1/7,
{4}6,5,4,3/5,
{4}6,2,1/7,2/8,
{4}7,8,1,2/8,
{8}7,,3/6,,4,5,4,,
{8}3/6,,2/7,,8,8,,1,
{1}1s5[2:1],
{8}6h[4:1],,5h[4:1],,4,3,4,3,
{4}4,1b/2b,7b/8b,,
{8}3h[4:1],,4h[4:1],,5,6,5,6,
{4}5,7b/8b,1b/2b,,
{8}7h[4:1],,8h[4:1],,1,2,8,3,
{4}1,3b/4b,7b/8b,,
{8}2h[4:1],,1h[4:1],,8,7,1,6,
{4}8,5b/6b,1b/2b,,
{4}1/5,2/6,3/7,4/8,
{4}1/3,5/7,4/8,2b/6b,
{1}1q4[4:3],
{4},,3/7,1/5,
{8}7,8,7,,2,1,2,,
{8}6,5,6,,3,4,3,,
{2}6-2[8:1],3-7[8:1],
{4}5,5-8[8:1],,,
{4}3h[4:1],4h[4:1],5h[4:1],6,
{4}7h[4:1],8h[4:1],1h[4:1],2,
{2}7p3[16:3],2q6[16:3],
{8}8,1,8,1,1b/8b,,,1h[4:1],
{8},8,1,8,2,7,2,7,
{8}3h[4:1],,4h[4:1],,5,6,5,6h[4:1],
{8},4,5,3,6,2,7,,
{8}1/8,,2b,,2b,6,8,7p2[4:1],
{8},,,,,3,1,2p5[4:1],
{8},,,,,8,1,2/7,
{4},1^4[4:1]/5^8[4:1],,,
{8}4v1[4:1]/8-5[4:1],,,,,,,6h[4:1],
{8},5,6,5,6,3,4,3,
{8}1/2,,7/8,,4,6,4,6h[4:1],
{8},2,1,2,7,8,7h[4:1],,
{8}8,,6b,,6b,2,4,3p6[4:1],
{8},,,,,7,5,6p1[4:1],
{8},,,,,5,4,3/6,
{8},,6v3[16:3],,,2^7[16:3],,,
{1}5q8[2:1],
{4}4,3/4,5,5/6,
{4}4,3/5,4/6,5/7,
{4}8,7/8,1,1/2,
{4}8,1/7,2/8,1/3,
{4}4/5,3/6,2/7,1/8,
{8}1,8,2,,8,1,7,,
{8}2/8,,1/7,,6,5,,3,
{8}4,,,2/7,3,6,4,5,
{4},1b/8b,
E

MASTER

(185){8}
4,,46,,4,4,6,4,
,4,6,4,4,,46,,
4,,46,,4,4,6,4,
{16}
,,3,,4,,5,,6,,3,5,3,,6,4,6,
,,,17,,,,7,,7,,1,,7,,
{8}
,7,1,7,7,,17,,
7,,17,,7,7,1,7,
,1,8-4[4:1],1,8,,,1h[4:1],
,8,6,6,4,4,2,2,
78,,12,,3,4,3,8h[4:1],
,2,4,4,6,6,8,,
72,,8b/3b,,6b/1b,4,3,2,
,5,3,18,,5,6,7,
,4,6,17,,18,27,36,
,,7/5-1[4:1],,,3-8[4:1],,,
1,,,,6h[8:11]/2-5[16:1],,2,,
,,,,,,,5,
,6,,3,4,,27,
,8h[4:1],,1h[4:1],,2h[4:1],,3,
4,,3,,6,5,,27,
,4h[4:1],,5h[4:1],,6h[4:1],,7,
8,,7,,2,1,,27,
,18,,27,,5,4,,
26,3b/7b,,,,,,,
,4-8[4:1],,6-2[4:1],,7,8,1,
2,3,,5-2[8:1]/6-1[8:1],,5b/6b,,,
,5-1[4:1],,3-7[4:1],,2,1,8,
7,6,,3-8[8:1]/4-7[8:1],,3b/4b,,,
,1-5[4:1],,7-3[4:1],,6,5,4,
3,2,,5-2[8:1]/6-1[8:1],,5b/6b,,,
,8-4[4:1],,2-6[4:1],,3,4,5,
6,7,,3-8[8:1]/4-7[8:1],,3b/4b,,,
,1h[4:1],,3,3h[4:1],,5,6,
7,48,37,26,15,4-7[8:1]/8-3[8:1],,4b/8b,
,,1,2,,7,6,,3h[8:3]
,,,5p4[4:1],,,,,
{16}
,,2,,8,1,8,,2,,6,,4,5,4,,
6,,2,,8,1,8,,2,,6h[4:1],,,,4,,
,,2h[8:1],,8,,7h[8:1],,1,,2h[8:1],,8,,7h[8:1],,
1,,2,,1,,8,,7,,1b/6,,,,,,
,,7,,3,4,3,,4,,2,,6,5,6,,
{8}
5,7,7,8,8,1,1,2,
2,3/4-8[8:1],,,,7/5-1[8:1],,,
,8-5[16:1],8-3[8:1],8-4[4:1],,,,,
1-5[16:1],,1,8-4[16:1],8,2-6[16:1],2,7-3[16:1],
7,1,1,1h[4:1],,5,5,5,
3-6[16:1],,3,7-2[16:1],7,4-1[16:1],4,8-5[16:1],
,8,,1b,,1b,8,8,
8^5[16:1],,1,1,1^4[16:1],,7,7,
7p3[8:1],,2,2,2q6[8:1],,8,8,
8,2^7[4:1],,7^4[4:1],,4^1[4:1],,,
,8-5[8:1],,8,4v1[8:1],,4,,
8-4[16:1],,8,1-5[16:1],1,7-3[16:1],7,2-6[16:1],
2,8,8,8h[4:1],,5,5,5,
6-3[16:1],,6,2-7[16:1],2,5-8[16:1],5,1-4[16:1],
,1,,8b,,8b,1,1,
1^4[16:1],,8,8,8^5[16:1],,2,2,
2q6[8:1],,7,7,7p3[8:1],,1,1,
1,,,1h[4:1]/6h[4:1],,,2h[4:1]/4h[4:1],,
,12,,,,3,4,5s1[4:7],
6,5b,,,,,,,
,,,,,,,,
,8h[4:1],,1h[4:1],,2h[4:1],,3,
4,,3,,6-2[8:1],5,,8,
,1h[4:1],,8h[4:1],,7h[4:1],,6,
5,,6,,3-7[8:1],4,,1,
,1,8,2,7,4,5,,
26,37,,,1,7,3,6,
4-8[8:1],,,1b,,,,,,
,
E

名前:
コメント:

タグ:

+ タグ編集
  • タグ:

このサイトはreCAPTCHAによって保護されており、Googleの プライバシーポリシー利用規約 が適用されます。

最終更新:2022年08月10日 17:19