キャプテン・ムラサのケツアンカー

BPM EASY BASIC ADVANCED EXPERT MASTER Re:MASTER
190 3 6 6 11 13 -

EXPERT MASTER Re:MASTER
譜面制作者 某S氏 はっぴー -

EASY


BASIC

(75.0){1},,,
(190.0){1},,,
{2}1,1,
{4}2,2,2,,
{2}3,3,
{4}3/4,3/4,3/4,,
{2}5,5,
{4}6,6,6,,
{2}7/8,7/8,
{4}1/8,1/8,1b/8b,,
{2}1,1,
{2}2,2,
{2}3,3,
{2}4,4,
{2}5,5,
{2}6,6,
{1}7h[2:1],
{2}8,1/8,
{2}8,8,
{4}7,7,7,,
{2}6,6,
{4}5,5,5,,
{2}4,4,
{4}3,3,3,,
{1}2h[2:1],
{2}1,1b/8b,
{2}1,1,
{4}2,2,2,,
{2}8,8,
{4}7,7,7,,
{2}6,6,
{4}5,5,5,,
{2}3,3,
{4}4,4,4,,
{2}5,4,
{2}3/4,3/4,
{2}4,5,
{1}5h[2:1]/6h[2:1],
{2}5/6,3/4,
{2}4/5,3/6,
{2}3,2,
{4}1/8,1/8,1b/8b,,
{4}7,7,7,,
{4}6,6,6,,
{4}5,5,5,,
{2}3/4,3/4,
{4}2,2,2,,
{4}3,3,3,,
{4}4h[8:3]/5h[8:3],,,3h[4:5]/6h[4:5],{1},
{2},4/5,
{1}4-1[4:3]/5-8[4:3],,
{4}1,1,1,,
{4}8,8,8b,,
{4}2,2,1/2,,
{4}7,7,7/8,,
{2}2/8,1/7,
{4}1/8,1/8,1/8,1h[4:3]/8h[4:3],,,,
E

ADVANCED

(75.0){1},,,
(190.0){1},,,
{4}3,3,4,4,
{4}3,4,2/5,,
{4}4,4,5,5,
{4}4/5,3/6,3/6,,
{4}6,6,5,5,
{4}6,5,4/7,,
{2}4/5,4/5,
{4}3/6,2/7,1/8,,
{2}1/2,1/2,
{4}3,4,5,6,
{2}7/8,7/8,
{4}6,5,4,3,
{2}1/8,1/8,
{4}2,7,2,7,
{4}2h[4:1],1,7h[4:1],8,
{1}1-4[2:1]/8-5[2:1],
{2}3/4,5/6,
{4}3,4,2/5,4,
{2}5/6,3/4,
{4}6,5,4/7,5,
{2}3/4,5/6,
{4}4/5,3/6,2/7,1/8,
{2}1h[4:1]/2h[4:1],7h[4:1]/8h[4:1],
{1}1^4[2:1]/8^5[2:1],
{2}3h[2:1],4h[2:1],
{4}5,6,7/8,,
{2}6h[2:1],5h[2:1],
{4}4,3,1/2,,
{2}2h[2:1],4h[2:1],
{4}5,6,7/8,,
{2}7h[2:1],5h[2:1],
{4}4,3,1/2,,
{4}3,3,4,3,
{4}2,5,3,3,
{4}6,6,5,6,
{4}7,4,6,6,
{2}2-5[4:1],7-4[4:1],
{4}1,8,1/8,,
{4}1,1,8,8,
{4}1,8,2b/7b,,
{8}3,,4,,3,3,,,
{8}6,,5,,6,6,,,
{8}7,,8,,7,7,,,
{8}2,,1,,2,2,,,
{8}4,,3,,3/4,3/4,,,
{8}5,,6,,5/6,5/6,,,
{1}4s8[4:7],,
{2},1b/8b,
{4}2,1,2,1,
{4}2,1,2/8,1/7,
{4}8,1,8,1,
{4}1/8,2/7,2/7,,
{4}7,8,7,8,
{4}7,8,1/7,2/8,
{2}1/2,7/8,
{4}1/8,2/7,{1}1^4[4:3]/8^5[4:3],,
E

EXPERT

(75.0){2}3/4h[2:1],5h[2:1],
{2}4h[2:1],3h[2:1],
{2}7h[2:1],1h[2:1],
(190.0){8}8b,,,8b,,,8b,,
{4}2h[4:1],8,7h[4:1],1,
{8}1,8,1,8,1,5,4,6,
{2}8/7-3[8:1],1/2-6[8:1],
{4}5/7,4/6,3/5,2/4,
{2}2/1-5[8:1],7/8-4[8:1],
{4}5p4[4:1],,,1b/8b,
{2}4/3-7[8:1],5/6-2[8:1],
{4}1/3,2/8,1/7,6/8,
{8}6,4,5,,3,5,4,,
{4}1/8,2/7,3/6,1b,
{4}3,3/4,6,5/6,
{4}4,3/4,5,5/6,
{4}1,2/8,8,1/7,
{2}1-6[8:1]/2-5[8:1],3/8,
{4}6,5/7,3,2/4,
{4}7,6/8,2,1/3,
{8}8,1,8,,5/6,,3/4,,
{4}1/2h[2:1],,4-8[8:1],1b,
{8}7,8,7,,2,1,2,,
{8}6,5,6,,3,4,3,,
{8}7,6,7,,2,3,2,,
{2}7-4[8:1]/8-3[8:1],1/6,
{8}2,1,3/8,,7,8,1/6,,
{8}3,4,2/5,,6,5,4/7,,
{8}4,5,4,,1/2,,4/5,,
{1}7^4[4:1]/8^3[4:1],
{8}2q6[8:1],2,,,7p3[8:1],7,,,
{4}1,8,2-6[8:1]/7-3[8:1],,
{8}1/7,1,,,2/8,8,,,
{4}7<3[16:3],,1-5[8:1],8b,
{8}6q2[8:1],6,,,3p7[8:1],3,,,
{4}5,4,2-6[8:1]/7-3[8:1],,
{8}4/8,8,,,1/5,1,,,
{4}2>6[16:3],,8-4[8:1],1b,
{4}2h[2:1],1,3h[2:1],4,
{4}2h[4:1],1,3/4,2/7,
{4}7h[2:1],8,6h[2:1],5,
{8}8b,8b,8,,5/6,,2/7,,
{2}1-5[8:1]/2-6[8:1],7-3[8:1]/8-4[8:1],
{2}2^5[8:1]/6^1[8:1],3b/7b,
{8}2,1,2,,7,8,7,,
{4}4/5,3/6,7/2-5[8:1],8b,
{8}6h[4:1],,7h[4:1],,8,8,,3h[8:3],
{8},,2h[4:1],,1,1,,5h[8:3],
{8},,6h[4:1],,7,7,,,
{8}1/2,,3/8,,4/7,4/7,,,
{8}6h[4:1],,4h[4:1],,2,2,,3h[8:3],
{8},,5h[4:1],,7,7,,,
{8}8-4[8:1],,,2-6[8:1],,,{4}5>6[1:1],{1},
{2},1b/8b,
{4}2h[4:1],1,7h[4:1],8,
{4}1/2,3/8,4/7,5/6,
{4}6h[4:1],8,3h[4:1],1,
{4}1/7,2/8,7/1-5[8:1],8b,
{4}7h[4:1],5,2h[4:1],4,
{4}3/4,2/5,1/6,7/8,
{8}2,1,3,,7,8,6,,
{8}1/8,1/8,2/7,2/7,3/6,,4,5,
{16}1,,8,,,,,,,2b/7b,
E

MASTER

(190)
{4},,,,{9}1,2,4,{4}7,{6},{4}2v4[4:2]/6v8[4:2],,,,{8},{4}3,3^5[4:1],,,8b,,
4h[8:9]/6h[8:23],,,,,,{4}5>7[4:4],,,,,,{8},

{4}27,{8}27,{4}18,{8}18,{4}2b/7b,

{16}4,5,4,5,4,5,4,5,3,6,3,6,2,7,2,7,1,8,1,,{8}27,18,27,6,5,4,

{4}3>8[8:1],6<1[8:1],4p7[8:1],5>6[4:1],,,{8}2,1,{4}47,
6<1[8:1],3>8[8:1],5q2[8:1],4<3[4:1],,,1-5[8:1],1b,
{4}3>8[8:1],6<1[8:1],4p7[8:1],5>6[4:1],,,{8}2,1,{4}47,
{8}6,{16}3,4,{8}3,2,7,5,2,4,6,4,2>5[8:1],8,{4}8,1b/7b,


5>2[8:1]/6,6,5p8[8:1]/7,7,5>2[8:1]/6,6,5p8[8:1]/7,7,
{8}5>2[8:1]/6,6,{4}6,5p8[8:1]/7,7,5>2[8:1]/6,6,5p8[8:1]/7,7,
5>2[8:1]/6,6,5-1[8:1]/7,7,{8}5v8[8:1]/6,6,{4}6,5p1[8:1]/7,7,
{8}45,56,45,34,{4}45,45,{16}1,8,1,8,1,8,1,8,{8}2-6[8:1],2,{4}1b,

3/4-8[8:1],3,3/5-1[8:1],3,6/5-1[8:1],6,6/4-8[8:1],6,
{8}3/4-7[8:1],3,{4}3,3/5-2[8:1],3,6/5-2[8:1],6,6/4-7[8:1],6,
3/4q8[8:1],3,3/1p4[8:1],3,{8}6/5p1[8:1],6,{4}6,6/8q5[8:1],6,
{8}7,6,5,4,{4}3h[4:1],4,7p4[4:2],,8b,,


{8}1-6[8:1]/2-5[8:1],12,{4},{8}8-3[8:1]/7-4[8:1],87,{4},
{16}1,8,1,8,2,7,2,7,1,8,{8}1,{4}2-5[8:1]/7-4[8:1],27,8-4[8:1]/1-5[8:1],8b/1b,27,
3/6>3[8:1],6,{16}1,8,{8}1,{4}2b/7b,
{8}8>3[8:1]/7<4[8:1],87,{4},{8}1<6[8:1]/2>5[8:1],12,{4},
{16}8,1,8,1,7,2,7,2,8,1,{8}8,{4}7-3[8:1]/2-6[8:1],72,1-6[8:1]/8-3[8:1],1b/8b,72,
6/3<6[8:1],3,{16}8,1,{8}8,{4}7b/2b,

{4}4h[8:3]/5h[8:1],7h[8:3],2h[4:1],1,4b/5b,1h[8:1]/8h[8:1],{8}27,27,{4}45,
4h[8:1]/7h[4:3],2h[8:1],8h[8:1],1,{8}4b/5b,4b/5b,{4}4b/5b,27,45,
{8}1-5[8:1]/8-4[8:1],18,{4},27,45,36,1-4[8:1]/8-5[8:1],1b/8b,36,
8<4[4:1],4>8[4:1],8<4[4:1],4>8[4:1],8<5[4:1],5-1[8:1],1,2b/7b,


{8}2,25,2,2>5[8:1]/8,2,6,7,{4}7h[4:1],
{8}5,7,7<4[8:1]/1,7,3,2,{4}2h[4:1],
{8}4,2,2>5[8:1]/8,2,6,7,{16}8,1,{4}8,36,{8}4-1[8:1]/5-8[8:1],45,{4},
{8}6,68,6,6<1[8:1]/4,6,2,3,{4}3h[4:1],{8}4,2,2<8[8:1]/5,2,7,6,{16}6,5,
{8}7-4[8:1],3,2,1-5[8:1],6,7,{4}8b,{8},45,36,27,{16}3,4,{8}3,{16}6,5,{8}6,
{4}2b/7b,,{16}4,5,4,5,4,5,{8}4,


78,{16}7,8,6,1,5,2,{8}4,{4}35,6<1[8:1],{8}3,{4}3>8[8:1],5q2[8:1],4b,
{8}21,{16}2,1,3,8,4,7,{8}5,{4}64,3>8[8:1],{8}6,{4}6<1[8:1],4p7[8:1],5b,
{8}78,{16}7,8,6,1,5,2,{8}4,{4}35,6<1[8:1],{8}3,{4}3>8[8:1],5q2[8:1],4b,
{8}3,{16}6,5,{8}6,7,24,3,75,6,3,5,7<4[8:1],1,{4}1,{8}18,27,36,{4}45,


{8},{16},{4}7-2[4:4]/2v5[4:4],
,,,,
,,,,
,,,,
,


E

Re:MASTER


名前:
コメント:

タグ:

+ タグ編集
  • タグ:

このサイトはreCAPTCHAによって保護されており、Googleの プライバシーポリシー利用規約 が適用されます。

最終更新:2022年08月10日 17:22