Change Our MIRAI!

BPM EASY BASIC ADVANCED EXPERT MASTER
256 3 4 7 10 12+

EASY


BASIC


ADVANCED


EXPERT


MASTER

(256){8}1,8,1,8,,27,,27,4,5,4,5,,27,,27,3,4,3,4,,27,,27,6,5,6,5,47,,,,
2h[4:3]/7,,,3,,5,5h[1:1],,3,,,7,,1,1h[1:1],,2,,,6,,4,4,,1,8,1,8,2b/7b,,,,

8,2,8,2h[2:1],,4,,4,2,8,2,8h[2:1],,5,,5,8,2,8,2h[2:1],,4,,4,2,8,2,8h[2:1],,5,,5,
7,3,7,3h[2:1],,4,,4,3,7,3,7h[2:1],,5,,5,7,3,7,3h[2:1],,4,,4,2,1,,45,,18,2b/7b,,

1,,6,5,,6,5,,8,,3,4,,3,4,,45,,2,1,,2,1,,45,,7,8,,7,8,,
18,,7,5,,7,5,,18,,{16}2,4,{8},,2,4,,
4h[4:1]/7h[4:1],,,5h[4:1]/6h[4:1],,,38,,8,1,7,2,6,3,45,,
3,4,3,6,5,6,2,4,2,7,5,7,1b/8b,,,,

2h[8:7],,,4,4,,6,6-1[8:1],,2-5[8:1],,,,,18,,
7h[8:7],,,5,5,,3,3-7[8:1],,8-4[8:1],,2-5[8:1],,,,,
6h[8:7],,,8,8,,2,2,,45,,78,,,12,,
4h[4:1]/7h[4:1],,,,2h[4:1]/5h[4:1],,,6h[8:3],,,7h[4:1],,8h[4:1],,1,,
7h[8:7],,,5,5,,3,3-8[8:1],,7-4[8:1],,,,,18,,
2h[8:7],,,4,4,,6,6-2[8:1],,1-5[8:1],,7-4[8:1],,,,,
3h[8:7],,,5,5,,7,7,,78,,12,,,45,,
3-1[8:1]/5,,,,6-8[8:1]/4,,,,3-8[8:1]/5,,,,6-1[8:1]/4,,,,

2b,,,,,,,,3,,,4,,,5,,
6h[2:1],,,,,,2,,6,,,3h[1:1],,,4,,
5,,,6h[1:1],,,5,,4,,,3,,8,1,,
27,,,34,,,56,,1-6[4:1],,,,8-3[4:1],,,,

1b,,6,6,,3,3,,45,,3,3,,6,6,,18,,7,8,,2,1,,18,,2,1,,7,8,,
18,,3,4,,6,5,,3,4,,8,2,7,3,6,
4h[4:1]/5h[4:1],,,3h[4:1]/6h[4:1],,,2h[4:1]/7h[4:1],,,1h[4:1]/8h[4:1],,,3b/6b,,,,

6,61,,3,38,,6,61,,2-5[8:1],,2,8-4[8:1],,8,,
3,38,,6,61,,3,38,,7-4[8:1],,7,1-5[8:1],,1,,
{4}8<1[2:1],,,8<1[4:3],,,,,7h[2:1],5,2h[2:1],4,8h[2:1],6,1h[2:1],3,
{8}7,,4,4,,8,8-4[8:1],,1-3[8:1],,7-5[8:1],,8,,1b,,
2,,5,5,,1,1-5[8:1],,8-6[8:1],,2-4[8:1],,1,,8b,,
1,8,3,8,1,8,4,8,1,8,5,8,1,8,6,8,
3-8[8:1],,,6-1[8:1],,,3-7[8:1],,,8-4[8:1],,,1b,,,,
3,31,,6,68,,3,31,,7-4[8:1],,7,1-5[8:1],,1,,
6,68,,3,31,,6,68,,2-5[8:1],,2,8-4[8:1],,8,,
{4}1>8[2:1],,,1>8[4:3],,,,,2h[2:1],4,7h[2:1],5,1h[2:1],3,8h[2:1],6,
{8}1,,2,3h[8:3],,8,8-4[8:1],,2-6[8:1],,7-4[8:1],,3,,1b,,
8,,7,6h[8:3],,1,1-5[8:1],,7-3[8:1],,2-5[8:1],,6,,8b,,
1,5,8,5,7,5,6,5,4,5,3,5,2,5,1-4[4:1],,
4-7[4:1],,7-2[4:1],,2-5[4:1],,5-1[4:1],,1>5[4:1],,5^8[8:1],,1b,,,,

7p4[4:3],,,,,,,,7,,,8,,,1,,2q5[4:3],,,,,,,,2,,,1,,,8,,
6^1[8:5],,,4,,,3,,2^5[8:5],,,,,,6,,7,,,8,,,1,,2h[2:1],,,,8b,,,,

1h[1:1],,8,8,,3,3,,6h[1:1],,7,7,,4,4,,1h[1:1],,8,7,,5,6,,6h[1:1],,5,4,,2,3,,
2,,18,18,,67,67,,45,45,,23,23,,18,,
2-6[8:1],,2,7-3[8:1],,7,1-5[8:1],,1,8-4[8:1],,8,2-6[8:1],,2,,
7b,5,7,2b,4,2,8b,1,8,2b,7,2,1-3[8:1]/8-6[8:1],,1b/8b,,
{4},,,5-2[4:1]/6-1[4:1],,,3b/8b,,

{8}
35,1,,46,8,,35,1,,46,,1,2-5[8:1]/8-5[8:1],,,,
46,8,,35,1,,46,8,,35,,8,1-4[8:1]/7-4[8:1],,,,
{4}5<4[2:1],,,5<4[4:3],,,,,7-4[8:1],1,2-5[8:1],8,7-3[8:1],1,2-6[8:1],8,
{8}7h[4:3],,5,5,,2,2-5[8:1],,8-3[8:1],,1-5[8:1],,8,,7b,,
2h[4:3],,4,4,,7,7-4[8:1],,1-6[8:1],,8-4[8:1],,1,,2b,,
8,1,6,1,8,1,5,1,8,1,4,1,8,1,3,1,
6-1[8:1],,,3-8[8:1],,,6-2[8:1],,,1-5[8:1],,,8b,,,,
46,1,,35,8,,46,1,,35,,8,1-4[8:1]/7-4[8:1],,,,
35,8,,46,1,,35,8,,46,,1,2-5[8:1]/8-5[8:1],,,,
{4}4>5[2:1],,,4>5[4:3],,,,,1-5[8:1],7,8-4[8:1],2,1-6[8:1],7,8-3[8:1],2,
{8}1,,2,3h[8:3],,6,6-1[4:1],,1-4[4:1],,4-7[4:1],,7,,1b,,
8,,7,6h[8:3],,3,3-8[4:1],,8-5[4:1],,5-2[4:1],,2,,8b,,
{4}1s5[2:1],,,8,7s3[2:1],,,1-5[8:1],
{8}7-4[8:1],,,3>6[8:3],,,,,
,,,,3h[4:1],,7h[4:1],,
4,8,3,8,2,8,1,8,7,8,6,8,5,8,4>8[4:1],,
{4}8<4[4:1],4>8[4:1],8<4[4:1],4>8[4:1],8<4[4:1],4-8[8:1],8b,,

{8}3,5,3,6,4,6,2,4,2,7,5,7,1,8,1,8,
2,2,7,7,,{16}1,2,{8}3,8,,2,7,,36,1-4[8:1]/8-5[8:1],,1b/8b,


名前:
コメント:

タグ:

+ タグ編集
  • タグ:

このサイトはreCAPTCHAによって保護されており、Googleの プライバシーポリシー利用規約 が適用されます。

最終更新:2021年05月05日 12:39