鼓動

BPM EASY BASIC ADVANCED EXPERT MASTER
121 2 3 6 9 11

EASY


BASIC


ADVANCED


EXPERT


MASTER

(121){8}
1^6[4:1]/5^2[4:1],,,,,,,7,7>3[8:1],,,7,7<3[8:1],,,7,
1-5[4:1]/7-3[4:1],,,,,,,1>5[8:3],1<5[4:1],,,,,,1b/8b,,

{4}
5-3[8:1],4-6[8:1],5-2[8:1],4-7[8:1],5-1[8:1],4-8[8:1],5-8[8:1],4-1[8:1],
5-7[8:1],4-2[8:1],4-7[8:1],5-2[8:1],3-7[8:1],6-2[8:1],4h[4:1],8b,

{8}
8h[4:1],,1h[4:1],,2^5[8:1],2h[8:3],,,6^1[8:1],6h[8:3],,,3^8[8:1],3h[8:3],,,
1h[4:1],,8h[4:1],,7^4[8:1],7h[8:3],,,3^8[8:1],3h[4:1],,,6^1[8:1],2^5[8:1],,,

{16}
6,,6,7,8,,8,1,2,,2,3,4,,,,3,,3,2,1,,1,8,7,,7,6,5,,5,,
3,7,5,7,3,5,3,7,2,6,4,6,2,4,2,6,{8}2,2,1,8,7h[4:1],,1b,,

28,,68,{16},8,1,7,{8}8,8-3[8:1],8-5[8:1],8-2[8:1],8-6[8:1],8-4[8:1],,8,,1,,
{16}1h[8:1],,8,1,2h[8:1],,1,2,3h[8:1],,2,3,4h[8:1],,3,4,
5h[8:1],,4,5,6h[8:1],,5,6,7h[8:1],,6,7,8h[8:1],,7,8,
{8}1h[8:1],2,3h[8:1],8,7h[8:1],4,5h[8:1],6,{16}4,3,4,5,{8}3,7,5,,35,4,
6,{16}5,4,{8}3^8[8:1],7^4[8:1],,,,3,{16}6,4,3,4,6,,3,5,6,5,3,,{8},,

26,2,15,5,48,8,37,15,37,7,48,4,15,1,26,48,
26,3,48,7,16,2,37,6,45,28,34,17,56,27,4b/5b,,
68,18,13,17,57,27,24,26,34,1b/8b,56,1b/8b,23,1b/8b,67,1b/8b,
34,47,56,25,23,27,67,27,12,25,78,47,13,27,68,27,
{4}4b/5b,,6h[4:1],3h[4:1],

{16}1s5[16:3],2,1,2,,,,,8z4[16:3],7,8,7,,,,,{4}2^7[8:1],6q3[8:1],4v5[8:1],,
{16}2z6[16:3],3,2,3,,,,,7s3[16:3],6,7,6,,,,,{4}7^2[8:1],3p6[8:1],5v4[8:1],,

{8}
1,6,7p6[4:1],4h[8:3],,,,,8,3,2q3[4:1],5h[8:3],,,,1,

1-6[8:1],1,2-5[8:1],2,8-3[8:1],8,7-4[8:1],7,
1-5[8:1],1,2-6[8:1],2,8-4[8:1],8,7-3[8:1],7,
1-4[8:1],1,1-6[8:1],1,1-4[8:1],1,1,1,
8-5[8:1],8,8-3[8:1],8,8-5[8:1],8,8,8,

1-4[8:1],8-5[8:1],1-3[8:1],8-4[8:1],1-5[8:1],8-6[8:1],1-4[8:1],8-3[8:1],
1-6[8:1],8-5[8:1],1-4[8:1],8^5[8:1],1^4[8:1],8,1,8,1b,

名前:
コメント:

タグ:

+ タグ編集
  • タグ:

このサイトはreCAPTCHAによって保護されており、Googleの プライバシーポリシー利用規約 が適用されます。

最終更新:2015年08月03日 22:36