待チ人ハ来ズ。

アーティスト 豚乙女

BPM EASY BASIC ADVANCED EXPERT MASTER
160 2 3 6 9+ 13

EASY


BASIC

(160.0){4}1,,,2,
{4}2,,,3,
{2}3,4,
{1}4/5,
{1}5h[2:1],
{2}6,6,
{1}7h[2:1],
{1}8b,
{4}8,,,7,
{4}7,,,6,
{2}6,5,
{1}4/5,
{1}4h[2:1],
{2}3,3,
{1}2h[2:1],
{1}1b/8b,
{1}1-4[4:3],,
{1}8-5[4:3],,
{2}7,7,
{2}6,6,
{1}7-3[4:3],,
{2}1/2,1,
{2}7/8,8,
{1}1h[1:1]/8h[1:1],,
{2}2,2,
{2}3,3,
{1}4h[1:1],,
{2}5,5,
{2}6,6,
{1}7h[1:1],,
{2}7,7,
{2}6,6,
{1}5h[1:1],,
{2}4,4,
{2}3,3,
{2}2,2,
{1}1b,,,
{1}1,
{1}1,
{2}2,2,
{2}1,1,
{4}8,8,8,,
{4}7,7,7,,
{1}8b,
{4}1,1,1,,
{4}2,2,2,,
{1}2-6[4:3],,
{4}8,8,8,,
{4}7,7,7,,
{1}7-3[4:3],,
{4}1,1,2,,
{4}2,2,3,,
{1}2-6[4:3],,
{1}8h[2:1],
{1}7h[2:1],
{1}6-1[4:3],,
{2}2,2,
{1}3,
{2}4,4,
{1}5,
{2}6,6,
{2}7,7,
{1}8h[1:1],,
{4}1,1,1,,
{4}8,8,8,,
{1}7h[1:1],,
{2}8,8,
{2}1,1,
{1}8h[8:15],
{8}1h[8:7],,,,,,,,
E

ADVANCED

(160.0){1}1h[4:3],
{1}8h[4:3],
{4}1,7,2,6,
{2}3h[2:1],4,
{1}6h[4:3],
{1}2h[4:3],
{1}8h[4:3],
{4}4h[8:3],,,4b,
{4}8,7,6h[4:1],,
{4}1,2,3h[4:1],,
{4}5,4,6,3,
{1}4h[4:3]/5h[4:3],
{2}1/2,1/8,
{2}7/8,1/8,
{4}1/8,2/7,3/6,4/5,
{1}2b/7b,
{1}7^4[2:1],
{1}2^5[2:1],
{1}8^5[2:1],
{1}1^4[2:1],
{1}8-5[2:1],
{1}1-4[2:1],
{1}7^4[2:1],
{1}4h[2:1]/5h[2:1],
{1}2h[8:3],
{1}7h[8:3],
{1}3h[1:1]/6h[1:1],,
{4}1/8,1-4[4:1]/8-4[4:1],,,
{4}2,1,8,7,
{4}4/5,4-8[4:1]/5-8[4:1],,,
{4}6,5,4,3,
{1}2q7[2:1],
{1}6q3[2:1],
{4}2,1,8,7,
{4}6,5,4,3b,
{4}4h[4:1],5,,5,
{4}5h[4:1],4,,4,
{4}6h[4:3],5,,5,
{4}3h[4:3],4,,4,
{4}2,3,4,5,
{4}6,7,8,1,
{1}1-4[8:3]/7-4[8:3],
{1}4h[4:3],
{4}8,8,8,1/7,
{4}1,1,1,2/8,
{4}4,4,4,3/5,
{4}5,5,5,4/6,
{2}1-4[8:1],8-5[8:1],
{2}2-5[8:1],7-4[8:1],
{4}1-6[8:1],,8,3,
{1}2h[4:3]/7h[4:3],
{1}1b/8b,
{4}1,2,3,3/4,
{4}8,7,6,5/6,
{4}3,2,1,7/8,
{4}6,7,8,1/2,
{4}3,3/4,6,5/6,
{4}2,3/4,7,5/6,
{2}2-5[8:1],7-4[8:1],
{2}1-4[8:1],8-5[8:1],
{4}3,4,2,3/4,
{4}6,5,7,5/6,
{4}2,1,3,1/2,
{4}7,8,6,7/8,
{2}1/5,2/6,
{2}3/7,4/8,
{1}2-5[8:3]/8-5[8:3],
{1}1h[4:3],
{4}8h[8:3],,,8,
{4}2h[8:3],,,2,
{4}6h[8:3],,,6,
{4}4h[8:3],,,4,
{4}7,8,6,5,
{4}4,3,4,4/5,
{4}2,1,3,4,
{4}5,6,5,4b/5b,
{1}3>7[2:1],
{1}6<2[2:1],
{4}2,2,4,4,
{4}6,6,8,8,
{1}1<5[2:1],
{1}8>4[2:1],
{4}1h[8:3],,,8h[8:3],
{8},,,,1h[8:3],,,8b,
E

EXPERT

(160.0){2}1,3,
{2}5,7,
{2}2h[2:1],6h[2:1],
{1}5^2[4:1],
{8}2h[2:1],,,1,1,,,,
{8}6h[2:1],,,5,5,,,,
{8}3h[2:1],,,5,5,,,,
{8}5/7,,,2/4,,,1/7,,
{4}2,4,6,4/8,
{4}7,5,3,1/5,
{4}7h[4:1],6,3h[4:1],4,
{1}4^7[4:1],
{8}2h[2:1],,,4,5,,,,
{8}8h[2:1],,,3,2,,,,
{8}4h[2:1],,,8,7,,,,
{1}2^5[4:1]/6^1[4:1],
{8}3h[8:3],,,4,,5,5,,
{8}6h[8:3],,,5,,4,4,,
{8}2h[8:3],,,1,,8,7,,
{8}7h[8:3],,,8,,1,2,,
{8}3h[8:3],,,5,,5,4/6,,
{8}6h[8:3],,,4,,4,3/5,,
{8}2h[8:3],,,7,,7,6/8,,
{8}6h[8:3],,,1,,1,2/8,,
{4}2-6[8:1],8-4[8:1],,,
{4}7-3[8:1],1-5[8:1],,,
{1}1>8[2:1],
{16}1b,,,,,,,,,,,,,,2,1,
{8}2-5[4:1],,,,,,7,8,
{8}7h[8:3],,,5h[8:3],,,4,,
{16}3,4,3-7[4:1],,,,,,,,,,,,,,
{8}5,,4,,3,,2,1,
{8}2h[8:3],,,3h[8:3],,,4,,
{4}7h[4:1],6,3h[4:1],4,
{4}1b/5,2,3/7b,4,
{8}3b/5,,6,,4b/7,,8,1,
{8}8-4[4:1],,,,,,2,1,
{8}2h[8:3],,,4h[8:3],,,5,,
{16}6,5,6-2[4:1],,,,,,,,,,,,,,
{8}4,,5,,6,,7,8,
{8}7h[8:3],,,6h[8:3],,,5,,
{4}2h[4:1],3,6h[4:1],5,
{1}4-8[4:1],
{1}1h[4:3],
{16}1,,,1,,,2/8,,,,,,7,,,7,
{8},6/8,,,3h[4:1],,1,,
{16}8,,,8,,,1/7,,,,,,2,,,2,
{8},1/3,,,6h[4:1],,8,,
{16}1,,,2,,,3,,,4,,,5,,,6,
{16},,7,,,8,,,1h[4:1],,,,8,,,,
{4}7/8,1/2,3/5,4/6,
{16}6/7,,,5/6,,,4/5,,,3/4,,,2/3,,,,
{16}1b,,,,,,,,,,,,,,7,8,
{8}7-4[4:1],,,,,,2,1,
{8}2h[8:3],,,3h[8:3],,,5,,
{16}6,5,6<3[8:3],,,,,,,,,,,,,,
{8}2,,1,,8,,7,8,
{8}7h[8:3],,,6h[8:3],,,5,,
{4}2h[4:1],3,6h[4:1],5,
{4}4/8b,7,2b/6,5,
{8}4/6b,,3,,2/5b,,1,8,
{8}1-5[4:1],,,,,,7,8,
{8}7h[8:3],,,5h[8:3],,,4,,
{16}3,4,3>6[8:3],,,,,,,,,,,,,,
{8}7,,8,,1,,2,1,
{8}2h[8:3],,,3h[8:3],,,4,,
{4}7h[4:1],6,3h[4:1],4,
{1}5-1[4:1],
{1}8h[4:3],
{8}3h[8:3],,,5h[8:3],,,6,,
{8}7h[8:3],,,4h[8:3],,,3,,
{8}1h[8:3],,,7h[8:3],,,6,,
{8}5h[8:3],,,2h[8:3],,,8,,
{8}8-5[8:1],,,1-4[8:1],,,8,,
{4}4-1[8:1]/5-8[8:1],,,1/8,
{16}3h[16:3],,,5h[16:3],,,4,,6h[16:3],,,4h[16:3],,,5,,
{16}3h[16:3],,,5h[16:3],,,4,,2/7,,,,,,,,
{8}2h[4:1],,1,1,,8,1/7,,
{8}6h[4:1],,5,5,,4,3/5,,
{8}1h[8:3],,,8z4[4:1],,,,,
{1}1<2[2:1],
{8}2h[8:3],,,4h[8:3],,,5,,
{8}7h[8:3],,,5h[8:3],,,4,,
{8}1,1,,7,7,,3,3,
{8},5,5,,1,8,1,2/7,
E

MASTER

(160)
{4}
1h[4:3],,,3,
5h[4:4],,,7,
2h[4:1],8h[4:1],6h[4:1],4h[4:1],
8-4[8:1],,3v1[8:1]/5v7[8:1],,
{8}
1h[8:3],,,8,1h[8:3],,,8,
,8,8,1v4[8:1],1v6[8:1],,,,
3h[8:3],,,5,5h[8:3],,,7,
{16}
28,,1,5,1,,17,,8,4,8,,1b/8b,,,,


{8}
1,8,27,4,4,35,4,35,
8,1,27,5,5,46,5,46,
2,7,18,2,7,18,2,18,
6,3,45,6,3,45,6,45,
{4}
2-6[8:1],6-2[8:1],2^5[8:1],6^1[8:1],
5-1[8:1],1-5[8:1],5^8[8:1],1^4[8:1],
8^5[8:1],4^1[8:1],5q4[8:1],1<2[2:1],
,,,,1b,,,1,
{8}
1,28,,5,,46,,1,
6h[4:1],,2,5h[8:3],,,2p6[8:1],,
,,6p2[8:1],,,,2<3[2:1],,
,,,,,,8,,
8,17,,4,,35,,1h[8:3],
4,,8,5,,,1-5[8:1]/3>7[8:1],,
,,8-4[8:1]/6<2[8:1],,,,4,7,
38,1-5[8:1]/2-6[8:1],,,,,5,2,
16,7-3[8:1]/8-4[8:1],,,,16,,25,
,7,6,5,7,8,1<4[8:3],2,
3,,,,,,6b,,


3,4,25,6,5,47,1,27,
6,5,47,3,4,25,8,27,
3,4,16,6,5,38,4,36,
6,5,38,3,4,16,5,36,
1-5[8:1],,,7-3[8:1],,,1h[4:1],,
8h[4:1],,7h[4:1],,6-2[8:1],7-3[8:1],,,
{16}
8,,1,8,,7,2,,3,,6,3,,4,5,,
48,,7,3,,6,2,,15,,,,7p3[8:1],,,,
{4}
3p7[8:1],7^4[8:1],3^8[8:1],4p8[8:1],
8p4[8:1],4^7[8:1],8^3[8:1],,
{8}
7h[4:1],,,68,,13,,2-5[8:1]/8-5[8:1],
,,,4-1[8:1]/6-1[8:1],,,,,
6-2[8:1],,,7-3[8:1],,,8h[4:1],,
1h[4:1],,2h[4:1],,3,3,,,


{16}
36,,2,1,3,1,4,,7,8,6,8,5,,37,,
36,,4,5,4,5,4,,2,7,1,8,2,,7,,
27,,,45,,1,8,,3,7,,26,,15,,,
36,,,18,,5,4,,36,,2,4,,7,,5,
3,,,3,,4,2,,37,37,,48,,15,,,
1,,,8-4[8:1],,8v3[8:1],,8v5[8:1],
,,,,,,,,,36,,,45,,2,8,
,7,1,,1,8,,2,7,,,18,,6,4,,
3,5,,5,4b,,,,
2b,4,2,4,3b,5,3,5,4b,6,4,6,5b,7,5,7,
2,1,,3,4,,8,7,,5,6,,2/7-3[8:1],,,,
1b,,,,,,,,
,,,,,,2,1,


{8}
8-4[8:1]/3h[2:1],,,,4-7[8:1],,2,2,
7-3[8:1]/2h[4:1],,,2,3-6[8:1],1,1,1,
6-2[8:1]/3,3h[8:11],,,2-5[8:1],,,,
5-8[8:1],,,,8b,,1,8,
1-6[8:1]/7h[4:1],,,7,6-3[8:1],,7,,
3-8[8:1]/6,,5,,8-4[8:1]/5,5,5,,
{16}
1,,6,5,,3,4,,6,,2,1,,7,8,,
18,,8,4,,6,2,,3b/6b,,,,1b/7,,8,,
{8}
1-5[8:1]/6h[2:1],,,,5-2[8:1],,7,7,
2-6[8:1]/7h[4:1],,,7,6-3[8:1],8,8,8,
3-7[8:1]/6,6h[8:11],,,7-4[8:1],,,,
4-1[8:1],,,,1b,,8,1,
8-3[8:1]/2h[4:1],,,2,3-6[8:1],,2,,
6-1[8:1]/3,,4,,1-5[8:1]/4,4,,,
{16}
25,,3,4,2,4,1,,6,5,7,5,8,,36,,
18,,2,7,2,7,2,,6,3,5,4,6,,3,,


{8}
2v5[8:1],,,7v4[8:1],,3-6[8:1],3,,
7-3[8:1],,,2-6[8:1],,1-5[8:1],1,,
3-8[8:1],,,7-4[8:1],,8^3[8:1],8,,
4^7[8:1],,,1^6[8:1],,2b,2b,,
8h[4:1],,7,6h[4:1],,5,4h[4:1],,
3,2h[4:1],,1,,8,1,,
{16}
1h[16:3],,,2h[16:3],,,1h[8:1],,
8h[16:3],,,5h[16:3],,,4h[8:1],,
5h[16:3],,,6h[16:3],,,1,,
18,,,,1b,,,,
1,5,1,5,1,5,1,5,1,5,1,5,1,5,1,5,
2,6,2,6,2,6,3,7,3,7,3,7,4,8,4,8,
5,6,5,6,5,6,4,7,4,7,4,7,4,7,3,8,
3,8,3,8,2,1,2,1,3,8,4,7,5b,,,,
{8}
3h[8:3],,2,2h[4:1],,1,8,7,
6h[8:3],,7,7h[4:1],,8,1,2,
12,38,47,78,16,25,15,26,
37,48,37,26,78,34,12,5b/6b,
{1}
,,,
E

名前:
コメント:

タグ:

+ タグ編集
  • タグ:

このサイトはreCAPTCHAによって保護されており、Googleの プライバシーポリシー利用規約 が適用されます。

最終更新:2022年07月21日 17:33