REDSTONE(創作譜面:ごぷりん)

曲名 RedStone
制作者名 ごぷりん
音源 ---
譜面動画
制作者コメント 良譜面。
BPM EASY BASIC ADVANCED EXPERT MASTER
136 - - - - 13

EASY


BASIC


ADVANCED


EXPERT


MASTER


&title=REDSTONE [maimaipink収録]
&artist=GAMEON
&freemsg=ここたままであと28
&wholebpm=
&lv_1=
&lv_2=
&lv_3=
&lv_4=10
&lv_5=13
&lv_6=
&lv_7=
&seek=
&wait=
&first=0.76
&des_1=
&des_2=
&des_3=
&des_4=
&des_5=mai-Star
&des_6=mai-Star
&des_7=
&inote_1=

&inote_2=

&inote_3=

&inote_4=
(){}



&inote_5=
(136.16){8}
8b,,8b,8b,,7b,7b,7b,
2b,4b,6b,8b,,7b/2b,7b/2b,7b/2b,
8b,,8b,8b,,7b,7b,7b,
2b,4b,6b,8b,,1b/2b,3b/2b,5b/2b,

8b,,8b,8b,,7b,7b,7b,
2b,4b,6b,8b,,7b/2b,7b/2b,7b/2b,
8b,,8b,8b,,7b,7b,7b,
2b,4b,6b,8b,,1b/2b,3b/2b,5b/2b,

8b,,8b,8b,,7b,7b,7b,
2b,4b,6b,8b,,7b/2b,7b/2b,7b/2b,
8b,,8b,8b,,7b,7b,7b,
2b,4b,6b,8b,,1b/2b,3b/2b,5b/2b,

1,1,3b,1,5,5,7b,5,
2,2,4b,2,6,6,8b,6,
1,2,5,6,3,4,7,8,
7h[8:1]/2h[8:1],,7b/2b,7b/5p4[8:1.7],
,,8b,,

(136)
1h[8:7],3,5,7,2,4,6,8,
7h[8:7],3,5,1,2,4,6,8,
5h[8:7],3,1,7,2,4,6,8,
3h[8:7],5,7,1,2,4,6,8,
1h[8:7],3,5,7,2,4,6,8,
7h[8:7],3,5,1,2,4,6,8,
5h[8:7],3,1,7,2,4,6,8,
7h[8:1]/2h[8:1],,8b/1b,7b/4q5[8:1.7],
,,1b,,

(135.85){4}
8>4[4:0.5],6b,4q5[4:0.5],6b,
1<5[4:0.5],3b,5p4[4:0.5],3b,
8>4[4:0.5],6b,4q5[4:0.5],6b,
1<5[4:0.5],3b,5p4[4:0.5],3b,
8>4[4:0.5],6b,4q5[4:0.5],6b,
1<5[4:0.5],3b,5p4[4:0.5],3b,
8>4[4:0.5],6b,4q5[4:0.5],6b,
1<5[4:0.5],3b,5p4[4:0.5]/3b,3b,

(136){8}
8b,,8b,8b,,7b,7b,7b,
2b,4b,6b,8b,,7b/2b,7b/2b,7b/2b,
8b,,8b,8b,,7b,7b,7b,
2b,4b,6b,8b,,1b/2b,3b/2b,5b/2b,

8b,,8b,8b,,7b,7b,7b,
2b,4b,6b,8b,,7b/2b,7b/2b,7b/2b,
8b,,8b,8b,,7b,7b,7b,
2b,4b,6b,8b,,1b/2b,3b/2b,5b/2b,

8b,,8b,8b,,7b,7b,7b,
2b,4b,6b,8b,,7b/2b,7b/2b,7b/2b,
8b,,8b,8b,,7b,7b,7b,
2b,4b,6b,8b,,1b/2b,3b/2b,5b/2b,

1,2,1,2,1,2,1,2,
7,8,7,8,7,8,7,8,
5,6,5,6,5,6,5,6,
3,4,3,4,3,4,3,4,


1,2,1,2,1,2,1,2,
7,8,7,8,7,8,7,8,
5,6,5,6,5,6,5,6,
3,4,3,4,32,45,16,78,

8b,,8b,8b,,7b,7b,7b,
2b,4b,6b,8b,,7b/2b,7b/2b,7b/2b,
8b,,8b,8b,,7b,7b,7b,
2b,4b,6b,8b,,1b/2b,3b/2b,5b/2b,

(136.05){4}
8>4[4:0.5],6b,4q5[4:0.5],6b,
1<5[4:0.5],3b,5p4[4:0.5],3b,
8>4[4:0.5],6b,4q5[4:0.5],6b,
1<5[4:0.5],3b,5p4[4:0.5],3b,
8>4[4:0.5],6b,4q5[4:0.5],6b,
1<5[4:0.5],3b,5p4[4:0.5],3b,
8>4[4:0.5],6b,4q5[4:0.5],6b,
1<5[4:0.5],3b,5p4[4:0.5]/3b,3b,

(136.1){8}
8b,,4b,8b,,7b,3b,7b,
7b,3b,5b,1b,,7b/2b,7b/2b,7b/2b,
2b,,6b,2b,,7b,1b/5b,7b,
2b,4b,6b,8b,,1b/2b,3b/2b,5b/2b,

8b,,4b,8b,,7b,3b,7b,
7b,3b,5b,1b,,7b/2b,7b/2b,7b/2b,
2b,,6b,2b,,7b,1b/5b,7b,
2b,4b,6b,8b,,1b/2b,3b/2b,5b/2b,

1,1,3b,13,5,5,7b,57,
2,2,4b,24,6,6,8b,68,
1,2,5,6,3,4,7,8,
5h[8:1]/2h[8:1],,5b/2b,1b/5p4[8:1.7],
,,2b,,



1h[8:7],3,5,7,2,4,6,,
7h[8:7],3,5,1,2,4,6,,
5h[8:7],3,1,7,2,4,6,,
3h[8:7],5,7,1,2,4,6,,
1h[8:7],3,5,7,2,4,6,,
7h[8:7],3,5,1,2,4,6,,
5h[8:7],3,1,7,2,4,6,8,
7h[8:1]/2h[8:1],,8b/1b,7b/5p4[8:1.7],
,,1b,,

{4}
8>4[4:0.5],6b,4q5[4:0.5],6b,
1<5[4:0.5],3b,5p4[4:0.5],3b,
8>4[4:0.5],6b,4q5[4:0.5],6b,
1<5[4:0.5],3b,5p4[4:0.5],3b,
8>4[4:0.5],6b,4q5[4:0.5],6b,
1<5[4:0.5],3b,5p4[4:0.5],3b,
8>4[4:0.5],6b,4q5[4:0.5],6b,
1<5[4:0.5],,5p4[4:0.5]/3b,3b,

{8}
12,12,34,34,56,56,78,78,
12,12,34,34,56,56,78,78,
12,12,34,34,56,56,78,78,
8b/6b,,5b/4b,5p4[8:0.9]/4>5[8:0.9],,,,,,,,,,,
,,,,,,,,





&inote_6=

&inote_7=










##comment
↑「#」を一個消して、コピーする。


名前:
コメント:

タグ:

+ タグ編集
  • タグ:

このサイトはreCAPTCHAによって保護されており、Googleの プライバシーポリシー利用規約 が適用されます。

最終更新:2015年10月12日 19:43