SAVIOR OF SONG

BPM EASY BASIC ADVANCED EXPERT MASTER
192 - - - 12

EASY


BASIC


ADVANCED


EXPERT


MASTER

(192){12}
3<6[4:1],,,,,7p3[4:1],,,,,2q6[4:1],, ,,,, ,,,, ,,,,
6>3[4:1],,,,,2q6[4:1],,,,,7p3[4:1],, ,,,, ,,,, ,,,,
3<6[4:1],,,,,7p3[4:1],,,,,2q6[4:1],, {8},,,, ,,,
{2}3b/6b,,,
{16},,,4,5,3,6,4,5,4,, ,,
{32}1<6[8:1],2,3,4, ,,
{4}1-4[8:1],1-6[8:1],1>4[8:1],1<6[8:1],1-5[8:1],1,38,
{32},,,, 8-3[8:1],7,6,5, ,,
{4}8-5[8:1],8-4[8:1],8,
{16}3,4,2,,6,5,7,,3,4,2,,47,,
{32},,,, 8>3[8:1],7,6,5, ,,
{4}8-5[8:1],8-3[8:1],8<5[8:1],8>3[8:1],8-4[8:1],8,16,
{32},,,, 1-6[8:1],2,3,4, ,,
{4}1-4[8:1],1-5[8:1],1,18,
{16}1,8,2,7,1,8,2,7,3,6,
{2},,,
{8},,45,,
2>5[4:1],,,7>2[4:1],,,4<7[4:1],,,1>4[4:1],,,6,,45,,
7<4[4:1],,,2<7[4:1],,,5>2[4:1],,,8<5[4:1],,,3,3,45,,
3>8[4:1],,,6>3[4:1],,,1<6[4:1],,,4>1[4:1],,,7,,18,,
6<1[4:1],,,3<6[4:1],,,8>3[4:1],,,5<8[4:1],,,1,2,34,,
{8}37,6,4,5,26,3,5,4,37,2,8,1,26,7,48,,
26,3,5,4,37,6,4,5,26,7,1,8,37,2,15,,
37,2,8,1,26,7,1,8,37,2,8,1,26,7,45,,
16,78,25,34,,,38,12,47,56,,,45,,18,2b/7b,,
{2},,,
{8},,,25,7-3[8:1]/8-4[8:1],,78,,{16}6,5,6>3[8:1],,{8}7,8,1<6[8:1],2,4>1[8:1],,4,5,6,
47,1-5[8:1]/2-6[8:1],,12,,{16}3,4,3<6[8:1],,{8}2,1,8>3[8:1],7,5<8[8:1],,2>5[8:1]/5,,2/7h[4:1],,8,16,,
1,{16}6,5,6,,47,,8,,3,4,3,,25,,1,,6,5,6,,{8}47,34,,2-5[8:1]/6-2[8:1],,26,,18,3-7[8:1]/7-4[8:1],,3<6[8:1]/7>2[8:1],,,,78,1-5[8:1]/6-1[8:1],,16,,12,38,,
{16}3,4,3<6[8:1],,{8}2,1,8>3[8:1],7,5<8[8:1],,5,4,3,
25,7-3[8:1]/8-4[8:1],,78,,{16}6,5,6>3[8:1],,{8}7,8,1<6[8:1],2,4>1[8:1],,4/7<4[8:1],,2h[4:1]/7,,1,38,,
8,{16}3,4,3,,25,,1,,6,5,6,,47,,8,,3,4,3,,{8}25,56,,3-7[8:1]/7-4[8:1],,37,,18,2-5[8:1]/6-2[8:1],,2<7[8:1]/6>3[8:1],,,,12,3-8[8:1]/8-4[8:1],,38,,,,
{16}1,,6,5,6,,47,,8,,3,4,3,,25,,1,,6,5,6,,47,,35,,8,,46,,1,,5,,2,1,2,,38,,4,,7,8,7,,16,,5,,2,1,2,,38,,46,,35,,1,,8,,
{4}2-5[8:1]/6,2/6-1[8:1],3-8[8:1]/6,3/7-4[8:1],2-5[8:1]/7,2/6-1[8:1],36,
{8}56,47,,12,3-8[8:1]/8-4[8:1],,3b/8b,,34,25,,78,1-5[8:1]/6-1[8:1],,1>7[4:1]/6b,,,,,
{32}8>3[8:1],7,6,5, ,,
{4}8-5[8:1],8-3[8:1],8<5[8:1],8>3[8:1],8-4[8:1],8,15,
{32},,,, 1-6[8:1],2,3,4, ,,
{4}1-4[8:1],1-5[8:1],1,{32}8,7,6,5, ,,,8-4[8:1],1,2,3,,,,,{4}8,26,
{32}1<6[8:1],2,3,4, ,,
{4}1-4[8:1],1-6[8:1],1>4[8:1],1<6[8:1],1-5[8:1],1,48,
{32},,,, 8-3[8:1],7,6,5, ,,
{4}8-5[8:1],8-4[8:1],8,
{16}3,,3,,6,,4,5,3,6,2,7,1,8,
{1},E

  • そういやセル塗り忘れたんで 同じのがmaipadにも -- あいすそーど (2015-12-05 00:12:38)
名前:
コメント:

タグ:

+ タグ編集
  • タグ:

このサイトはreCAPTCHAによって保護されており、Googleの プライバシーポリシー利用規約 が適用されます。

最終更新:2015年12月05日 00:12