Solar Storm (創作譜面:水風)

曲名 Solar Storm
制作者名 水風(純粋)
音源 https://www.youtube.com/watch?v=UYG5LrfPabM
譜面動画
制作者コメント Groove Coasterより、Solar Stormの創作譜面を作ってみました。天下一音ゲ祭課題曲なのでかなり難しめに作りました。
BPM EASY BASIC ADVANCED EXPERT MASTER
200 - - - - 12

EASY


BASIC


ADVANCED


EXPERT


MASTER


(200)
{4}
,,,,
{16}
8^5[8:1]/1,,18,,2,3,4,,1^4[8:1]/8,,18,,7,6,5,,1q6[8:1]/2,,12,,3,4,5,,8p3[8:1]/7,,78,,6,5,4,,
1/8q5[8:1],,81,,2,3,4,,1p4[8:1]/8,,18,,7,6,5,,18,,18,,27,36,45,,7,8,1,2,37,48,15,26,
{1}
3b/7b,,
{16}
,,,,1,8,1,8,1,8,1,8,1,8,1,8,2,3,4,5,6,7,6,5,4,,38,,27,,16,,
{8}
2-6[8:1]/5-2[8:1],,25,,7,8-4[8:1],,8^5[8:1],,8^3[8:1],,8,,16,27,38,
7-3[8:1]/4-7[8:1],,74,,2,1^6[4:1],,6-2[4:1],,2^5[8:1],,7,,25,36,47,
3-8[8:1]/8-4[8:1],,38,,27,3-1[8:1]/7-5[8:1],,7q3[4:1]/3q7[4:1],,3-5[8:1]/7-1[8:1],,,,47,36,25,
1-5[8:1]/6-1[8:1],,16,,37,26,,18,,67,,4b/5b,,2b/3b,{16}1,2,3,4,

{8}
5v7[8:1]/8-5[8:1],,5p1[4:1]/8,,1<2[8:3],2-7[8:1],,2-6[4:1],,6^1[8:1],,,,47,36,25,
4v2[8:1]/1-4[8:1],,4q8[4:1]/1,,8>7[8:3],7-2[8:1],,7-3[4:1],,3^8[8:1],,,,52,63,74,
8^5[8:1]/5p7[8:1],,5q3[4:1]/8,,3>4[8:3],4-1[8:1],,4-8[4:1],,8^3[8:1],,,,47,36,25,
1^4[8:1]/4q2[8:1],,4p6[4:1]/1,,6,5,,27,{16}21,,,28,,,27,,,47,,,57,,67,,

5,6,4,5,3,4,2,3,7,6,8,7,1,8,2,1,3,4,5,6,7,8,1,2,8,7,6,5,4,,,,

{4}
4>5[12:7],,4>5[12:7],,4>5[8:3],,,1-5[4:1],5^2[4:1],2^7[4:1],7-3[8:1],3,4p5[8:5],,1-4[8:1],,
1q4[12:7],,1q4[12:7],,1q4[8:3],,,2v3[8:1],1v4[8:1],8v5[8:1],7v6[8:1],,5b/3-8[8:1],,7-4[8:1]/1b,,

{16}
1,5,1,5,1,5,1,5,1,5,1,5,1,5,1,,,6,2,6,2,6,2,6,2,6,2,6,2,6,2,6,
,,3,7,3,7,3,7,3,7,3,7,3,7,3,7,3,,,8,4,8,4,8,4,8,4,8,4,8,4,8,
2,1,2,1,2,1,2,,8,3,8,3,8,3,8,,4,7,4,7,4,7,4,,6,5,6,5,6,5,6,,
2,1,2,,7,8,7,,1,8,2,7,3,6,4,,7^4[8:1],,,,,,1,8,7,,{24}8,7,6,{16}1,2,3,,
{16} 18,,27,,1,8,2,7,1,,8,2,4,,1,7,5,,6,5,6,,3,4,3,,7,8,7,,2,1,2,,7,8,7,8,7,,3,,8,1,8,1,8,,4,,1,2,1,2,1,2,4,3,4,3,6,5,6,5,
6,,48,,7,3,6,2,7,8,6,5,1,2,4,3,7,,2,4,3,,7,5,6,,1,3,2,,8,6,7,,2,1,2,1,2,,6,1,8,1,8,1,8,1,2b/8b,,,1b/6b,,,3b/7b,,,1b/5b,,,3,4,3,,

26,,26,,3,4,5,6,7,8,1,,26,,26,,5,4,3,2,1,8,7,,26,,26,,8,7,6,,
15,,15,,4,3,2,1,8,7,6,,15,,15,,2,3,4,5,6,7,8,,15,,15,,8,1,2,,
37,,15,,{24}2,3,4,5,6,7,8,1,2,{16}3,,48,,26,,{24}7,8,1,2,3,4,5,6,7,{16}8,,15,,37,,{24}6,5,4,{8}3,

{12}
1,8,2,8,1,7,1,8,2,8,1,7,3,5,4,6,4,5,3,5,4,6,4,5,
2,6,8-4[8:1],6,2,8,3,7,1-5[8:1],7,3,1,2,4,3,8,6,7,45,36,27,18,27,36,

{16}
45,,,,5,4,5,4,5,4,5,4,5,4,5,4,{32}5,6,7,8,1,2,3,4,{8}5-1[8:1],1^6[8:1],5,3,2,3,

{8}
4-1[8:1]/8-5[8:1],,48,,26,3-6[8:1]/7-2[8:1],,37,,5,1,4,8,{16}37,26,15,,26,37,
{8}
4v1[8:1]/8v5[8:1],,48,,26,3v6[8:1]/7v2[8:1],,37,,8,4,7,3,{16}26,37,48,,37,26,
{8}
1q6[8:1]/5q2[8:1],,15,,15,4p7[8:1]/8p3[8:1],,48,,8,4,1,5,{16}26,37,48,,37,26,
{8}
1-4[8:1]/5-8[8:1],,15,,3-7[8:1],7-3[8:1],,,{16}4,,,5,,,2b/6b,,,{16}3b/7b,,,,1<1[1:1],2,3,4,
{1}
5h[8:7],
{16}
,,4,,3,,7,8,6,8,7,,1,,1,,6q3[8:1],,6,,,,,,15,,2-5[8:1]/6-1[8:1],,,,2b/6b,,,,4,,35,,8,,71,,2,3,4-7[8:1],,6,,
4,,,,1-5[8:1],,,,8-4[8:1]/1,7,6,,1-5[8:1]/8,2,3,,8-4[8:1]/1,7,6,,1-5[8:1]/8,2,3,,1,,8^3[8:1],,,,8b,,
,,1,2,3,4,5,6,8,7,6,5,4,3,2,,18,,,46,,,23,,,57,,,4,5,4b,,

1-5[8:1]/5,,37,,5,6,7p1[4:1],,8,,4,3,2,,3,,,,46,,35,,,,3,7,3,7,3,7,3,,
{6}
2-4[16:1]/6-4[16:1],2-8[16:1]/6-8[16:1],2v4[16:1]/6v4[16:1],2v8[16:1]/6v8[16:1],2v3[16:1]/6v3[16:1],2v7[16:1]/6v7[16:1],

2v5[16:1]/6v5[16:1],2v1[16:1]/6v1[16:1],26,2v1[16:1]/6v5[16:1],26,26,

{16}
8-4[8:1]/4,,62,,4,3,2q8[4:1],,1,,5,6,7,,6,,,,53,,64,,,,6,2,6,2,6,2,7v4[8:1],,
,,1v4[8:1],2,3,,7v4[8:1],6,5,,1v4[8:1],2,3,,7,6,5,,8^5[8:1],1,2,,8,,,,1,,1,,2,7,
4,5,3,6,1,8,2,7,4,5,3,6,1,8,2,7,{32}3,4,5,6,7,8,1,2,3,4,5,6,7,8,1,2,3,4,5,6,7,8,1,2,37,,,,1s5[1:1]/5s1[1:1],,
{1},,,

E

名前:
コメント:

タグ:

+ タグ編集
  • タグ:

このサイトはreCAPTCHAによって保護されており、Googleの プライバシーポリシー利用規約 が適用されます。

最終更新:2015年11月08日 22:13