千本桜

BPM EASY BASIC ADVANCED EXPERT MASTER
154 2 6 7 10+ 12+

EASY

(154){1},,,,
2,
2,
3,
3,
2,
2,
{2}1,1,
{1}1b,

8,
7,
8,
1,
1,
2,
1,
8,

7-2[2:1],
,
2-7[2:1],
,
{2}
6,6,
5,5,
4,,
,,

2,2,
1,1,
8,8,
7h[2:1],,
7,7,
8,8,
1,1,
2,2,
1,8,
7,6,
7,8,
1h[2:1],,
8,7,
6,5,
6,7,
8,8b,

{1}
1,
2,
3,
4,
3,
2,
1,
{2}8,8b,

{4}
7,7,,,
6,6,,,
7,7,,,
8,8,,,
1,1,,,
2,2,,,
{2}
2,1,
8,8b,

{1}
1,
1,
2,
2,
1,
1,
8,
18,
18,

,,
E

BASIC

(154.0){1},,,,
{4}2,7,1,4,
{2}8,8,
{2}7,7,
{2}8,8,
{2}7,7,
{2}6,3,
{2}6,3,
{2}2,7,
{4}3,3,4,,
{2}7,7,
{2}8,8,
{2}1,1,
{4}2,2,2,,
{2}3,3,
{2}4,4,
{2}5,5,
{4}8,7-3[4:1],,,{1},
{4}5,5,3,,
{2}7/8,1/2,
{4}1,1,1,,
{4}8,8,1,,
{2}2/7,3/6,
{2}1/2,7/8,
{1}6-3[4:1],
{2}3,2/3,
{4}8,8,8,,
{1}7h[2:1],
{4}1,8,1/8,,
{2}2/7,1/8,
{2}7/8,1/2,
{4}1,1,1,,
{2},1b,
{2}1/6,2/7,
{4}8,1,2,,
{1}7h[2:1],
{4}8,1,1,,
{2}1/8,2/7,
{2}1,8,
{4}5,4,6,3,
{2}2,1b,
{1}1-4[4:3],,
{1}4-1[4:3],,
{1}2h[2:1],
{1}6h[2:1],
{1}6b,
{4}8,8,1,,
{2}3,2/3,
{4}8,8,8,,
{1}1h[2:1],
{1}7h[2:1],
{2}2/7,1/8,
{2}7/8,1/2,
{4}1,1,1,,
{2}7,8b,
{4},2,,7,
{4},7,,2,
{4},2,,7,
{4},7,,6,
{4},6,,3,
{4},6,,3,
{4},2,,7,
{4}3,3,4,,
{4}2,1-4[4:1],,,
E

ADVANCED

(154.0){1},
{1}1h[4:3],
{1}8h[4:3],
{1}7h[4:3],
{4}6,7,8,1b,
{4}1h[4:1],2,8h[4:1],7,
{4}3h[4:1],4,6h[4:1],5,
{4}2h[4:1],3,7h[4:1],6,
{4}4,5,4,1/8,
{4}1h[4:1],2,4h[673:170],3,
{4}8h[4:1],7,6h[4:1],5,
{4}2h[4:1],3,7h[4:1],6,
{4}3,6,1b/8b,,
{4}1,2,3h[4:1],,
{4}1,1,8,8,
{4}7,7,7h[4:1],,
{4}8,8,1,1,
{4}2,3,3/4,,
{4}8,7,6/7,,
{4}1/2,2/3,3/4,,
{4}1,7,5,3b,
{4}2,7,4/5,1,
{4}6,3,4/5,,
{4}2,7,4/5,1/2,
{4}8,7,1/8,,
{4}1,2,3-8[8:1],,
{4}7,5,3/4,,
{8}2,2,,1,1,,2,,
{1}3h[8:3],
{4}2,2,7h[4:1],6,
{4}7,7,2h[4:1],,
{4}1,2,3,3/4,
{4}1,8,6/7,,
{4}8,1,2,3,
{4}2,1,7/8,,
{4}1/8,1/8,1/2,1/2,
{4}1/8,7/8,6/7,,
{4}1,6,3h[4:1],,
{4}2,7,4/5,,
{4}6/8,6/8,1/3,1/3,
{4}1/8,2/7,4/5,,
{4}1,1,1h[4:1],,
{4}3,3,5/6,,
{4}6,6,7,8,
{4}1/8,1/2,2b/3b,,
{4},1,,8,
{4},7,,6,
{4},5,,4,
{4},3,,2,
{4}1,3,5,7,
{4}7,5,3,1,
{4}8,8,7,7,
{4}1/8,1/2,1b/8b,,
{4}2,4,6,8,
{4}7,5,2/3,,
{4}2,3,4,5,
{4}4,2,1b/8b,,
{4}8,7,6,5,
{4}6,8,1/2,,
{4}8,7,6,5,
{4}3/4,5/6,7/8,,
{4}1h[4:1],2,8h[4:1],7,
{4}3h[4:1],4,6h[4:1],5,
{4}2h[4:1],3,7h[4:1],6,
{4}4,5,4,1/8,
{4}1h[4:1],2,4h[673:170],3,
{4}8h[4:1],7,6h[4:1],5,
{4}2h[4:1],3,7h[4:1],6,
{4}3,6,1/8,,
{4}1,1,4b,
E


ページ名またはURL*EXPERT
(154.0){1},,
{4},,7/8,1/2,{1},
{4}2/7h[4:1],6,5/1-4[8:1],,
{4}7h[4:1],6,1h[4:1],2,
{4}8h[4:1],7,2h[4:1],3,
{4}4/7h[4:1],6,6/2h[4:1],3,
{4}4/7h[4:1],8h[4:1],1h[4:1],2,
{4}3/8h[4:1],7,6/2h[4:1],4,
{4}3/7h[4:1],5,6/1h[4:1],2,
{4}3h[4:1],5h[4:1],7h[4:1],8b,
{16}1/2,,,4/5,,,5/6,,4/5,,,,,,,,
{4}1/3h[4:1],2^7[4:1],,,
{4}6/3h[4:1],4,3/6h[4:1],8^3[8:1],
{4},1^6[8:1],,8,
{4}2h[4:1],6h[4:1],4h[4:1],5,
{4}3/7h[4:1],6,6/2h[4:1],1,
{4}8/7h[4:1],6,6/8h[4:1],7,
{4}5/1h[4:1],3,3/7h[4:1],5,
{4}8b,2b,6b,3b,
{4}5,4,3,2,
{4}3/4h[4:1],5,2/6,7^4[4:1],
{4},1^4[4:1],,1^6[4:1],
{4},5-1[4:1],,,
{4}3/4,5,6,7/8,
{4}1/2,1/8,3/6,,
{8}3/2h[8:3],3,,8,8h[1:1],,1^6[2:1],,
{8},,,,,,2,3,
{16}4,,,7,,,5,,3h[4:1],,,,,,4,,
{8}5,6,7,8,1,,7,6,
{16}5,,,4,,,6,,8h[4:1],,,,,,1,,
{8}2,1,8,7,6,,5,2,
{16}8,,,1,,,2,,3h[4:1],,,,,,1,,
{8}8,7,8,1,2,,8,7,
{4}6h[4:3],1,2,3,
{4}4/8,2/6,3/7,1^4[2:1],
{16}5,,,6,,,7,,7h[4:1],,,,,,8,,
{8}7,6,5,4,3,,4,5,
{16}6,,,6,,,7,,7h[4:1],,,,,,7,,
{8}8,1,8,7,6,,4-8[2:1],,
{16}1,,,2,,,3,,3h[4:1],,,,,,2,,
{8}1,2,3,4,5,,2,,
{4}5/6h[4:3],3,7,1,
{4}8h[2:1],5-1[4:1],,8^5[4:3],{1},,
{1}7h[4:3],
{4}6h[4:3],,,5^8[4:3],{1},
{4}2h[4:3],,,1-5[4:3],{1},
{8}3b/7b,,4b/8b,,2b/6b,,2,3,
{16}4,,,7,,,5,,3h[4:1],,,,,,4,,
{8}5,6,7,8,1,,7,6,
{16}5,,,4,,,6,,8h[4:1],,,,,,1,,
{8}2,1,8,7,6,,5,2,
{16}8,,,1,,,2,,3h[4:1],,,,,,1,,
{8}8,7,8,1,2,,8,7,
{4}6h[4:3],1,2,3,
{4}4/8,2^5[4:1]/6^1[4:1],,,
{4}7h[4:1],6,1h[4:1],2,
{4}8h[4:1],7,2h[4:1],3,
{4}4/7h[4:1],6,6/2h[4:1],3,
{4}4/7h[4:1],8h[4:1],1h[4:1],2,
{4}3/8h[4:1],7,6/2h[4:1],4,
{4}3/7h[4:1],5,6/1h[4:1],2,
{4}3h[4:1],5h[4:1],7h[4:1],8b,
{16}1/2,,,2/3,,,6/7,,5/6,,,,,,,,
{16}1b/8b,,,1b/2b,,,7b/8b,,4b/5b,
E

MASTER

(154){16}
67,,,76,,,57,,32,,,32,,,42,,
67,,,67,,,86,,32,,,,13,,,,
87,,,87,,,61,,21,,,12,,,83,,
{4}
65,43,87,21,

{16}
74,,65,,5,6,5,6,5,,34,,3,4,3,4,
3,,54,,4,5,4,5,4,,3,,4,,5,,
6,,87,,8,7,8,7,8,,21,,2,1,2,1,
2,,8,,1,,18,,1,8,1,8,1,,18,,
65,,54,,5,4,5,6,5,,54,,4,5,4,3,
4,,43,,3,4,3,2,3,,4,,5,,6,,
5,4,3,2,1,8,7,6,5,,43,,2,,31,,
17,,,68,,,75,,6-3[8:1],,,,,,,,

{8}
7h[4:1],,6h[4:1],,7,8,1,2,
{16}
3h[4:1],,,,2h[4:1],,,3,3,,2,,1,,8,,
{8}
7h[4:1],,6h[4:1],,7,6,5,4,
{4}
3h[4:1],1h[4:1],7h[4:1],5,
{16}
2h[4:1],,,3,3h[4:1],,,2,2,,3,,4,,5,,
7h[4:1],,,6,6,,7,,8,,1,,2,,3,,
2h[4:1],,,3,3,,2,,1,,,,8,,,,
{4}
1-5[8:1],1^4[8:1],1^6[8:1],,

{8}
2h[4:1]/7-4[8:1],,,2,2/4-8[8:1],,2b,,
2h[4:1]/8-3[8:1],,,2,2/3-6[8:1],,2b,,
2h[4:1]/6-1[8:1],,,2,2/1-6[8:1],,2b,,
2h[4:1]/6-3[8:1],,,2,2/3-7[8:1],,2b,,
7h[4:1]/2-5[8:1],,,7,7/5-8[8:1],,7b,,
7h[4:1]/8-3[8:1],,,7,7/3-6[8:1],,7b,,
7h[4:1]/6-1[8:1],,,7,7/1-4[8:1],,7b,,
68,,1,2b/3b,,,3,6,

{16}
1,,,4,,,16,,83,,,,,,48,,
{8}
48,37,26,15,48,,31,2,
{16}
87,,,67,,,65,,34,,,,,,2-7[8:1],,
{8}
2h[2:1],,,,8-5[8:1],,4,3,
{16}
2,,,16,,,83,,47,,,,,,51,,
{8}
51,62,73,48,51,,8,3,
{4}
12,65,78,43,
{8}
2-5[4:1],1,8,7,6,,7,8,

{16}
65,,,54,,,43,,16,,,,,,15,,
{8}
48,73,62,51,48,,3,4,
{16}
65,,,67,,,87,,25,,,,,,8-4[8:3]/2-6[8:3],,
{8}
1,28,,,,,7,8,
{16}
12,,,32,,,34,,16,,,,,,84,,
{8}
51,62,73,84,15,,54,56,
{4}
7h[4:1],8h[4:1],1h[4:1],2h[4:1],
{8}
1,28,2-5[8:1]/8-5[8:1],28,,,7^4[2:1]/8^3[2:1],,

{4}
,,,1-5[2:1],
,,,1^6[2:1]/6^3[2:1],
,,,7-2[8:1],
{8}
,,2^7[8:1]/7^4[8:1],,,,7,7,
{16}
68,,,81,,,31,,2,,,,,,3h[8:5],,
{8}
2,1,8,7,6,,65,43,
{4}
31,42,86,75,
{8}
4,5,4,5,36,,17,36,

{16}
14,,,25,,,36,,18,,,,,,17,,
{8}
7,57,5,35,3,,8^3[4:1],8,
{16}
7,,,7,,,7,,65,,,,,,4,,
{8}
4^7[4:1],4,1,2,3,,7,6,
{16}
6h[2:1],,,5,,,4,,3,,,,,,82,,
{8}
2,24,4,64,6,,12,83,
{4}
57,68,24,13,
{8}
61,52,3-8[4:1]/4-7[4:1],43,,,,,

{16}
43,,42,,3,2,3,4,3,,57,,6,7,6,5,
6,,24,,3,2,3,4,3-6[8:1],,,,,,,,
21,,13,,2,1,2,3,2,,86,,7,8,7,6,
7-2[8:1],,,,,,,,1,2,1,8,7,,87,,
17,,82,,1,2,1-5[8:1],8,1,,,,8,1,8-4[8:1],7,
8,,,,1,2,1,8,7,,65,,54,,43,,
5,6,7,8,1,2,3,4,5,,43,,32,,21,,
52,,,47,,,63,,4^1[8:1]/5^8[8:1],,,,,,,,
16,,,83,,,54,,1-4[8:1]/8-5[8:1],,,,,,,,

{1}
,
,
E

  • 曲の入れ方がわからりませんわかりやすくお願いいたします -- 坂田銀時 (2013-08-05 09:55:37)
  • 自分で考えろガキwwww -- www (2013-11-12 18:32:14)
  • ↑キモ -- マジレス君 (2014-05-01 22:24:04)
名前:
コメント:

タグ:

+ タグ編集
  • タグ:

このサイトはreCAPTCHAによって保護されており、Googleの プライバシーポリシー利用規約 が適用されます。

最終更新:2023年06月03日 09:52