!!!カオスタイム!!!(創作譜面:わたあめ)

曲名 !!!カオスタイム!!!
制作者名 わたあめ
音源 http://www.nicovideo.jp/watch/sm27592652
譜面動画
制作者コメント なんかね、うん。仕方ないよね。曲名で察してよ(((
BPM EASY BASIC ADVANCED EXPERT MASTER
??? - - - - 1

EASY


BASIC


ADVANCED


EXPERT


MASTER

(0.004){99999999999999999999999999999999999999999999999999999999999999999999},
(180){1},,,,

(4096){0.5}
1-3[8:1]/8-4[8:1],,1-5[8:1]/8-6[8:1],,2,2h[1:4],,7h[1:10],
,3,2,1,8h[1:4],,1,,
(8192){0.25}
5-7[4:1]/4-8[4:1],,5-1[4:1]/4-2[4:1],,6,6h[1:8],,3h[1:20],
,7,6,5,4,,,,
(16384){0.125}
3-5[2:1]/2-6[2:1],,3-7[2:1]/2-8[2:1],,4,4,,7-1[2:1]/6-2[2:1],
(32768){0.0625}
5,7-3[1:1]/6-4[1:1],,2h[1:48],7h[1:32],,,,
(65536){0.125}
2-5[8:1]/7,8,1,,2-6[8:1]/8,8,,,7-4[8:1]/2,1,8,,7-3[8:1]/1,1,,,
(131072){0.09375}
8-5[8:1]/2,3,2,3,2,,1-4[8:1]/7,6,7,6,7,,8-4[8:1]/3,2,3,2,3,,1-5[8:1]/6,7,6,7,
(0.00256){2400000}6-3[0.5##0.01],
(256){1},

{8}
1-6[12:1],1,7-4[12:1],7,2-5[12:1],2,8-3[12:1],8,
1,2-6[12:1],1,2h[8:5],,8,7-4[12:1],6,
7-2[12:1],,,,8h[8:5],5-2[12:1],,,
,1h[8:3],4-7[12:1],4,,,,,
5-2[12:1],5,3-8[12:1],3,6-1[12:1],6,4-7[12:1],4,
5,6-2[12:1],5,6h[8:5],,4,3-8[12:1],2,
3-6[12:1],,,,4h[8:5],1-6[12:1],,,
,5h[8:3],{64}8-3[8:1],1,2,3,4,3,2,1,{8}8,,,,,

{12}
1^4[12:1],,,1^6[12:1],,,,,5-1[12:1],,,,
,,8-4[12:1],4-8[12:1],,,,,,2h[4:1],,,
8^5[12:1],,,8^3[12:1],,,,,4-8[12:1],,,,
,,1-5[12:1],5-1[12:1],,,,,,,,,

8-4[12:1],,8,2-6[12:1],,2,3-7[12:1],,3,5-1[12:1],,5,
6-2[12:1],,6,8-4[12:1],,8,1-5[12:1],,1,,,,
{8}
5,5/4-1[12:1],4,4/5-8[12:1],5,5/4-8[12:1],4,4/5-1[12:1],
6,5/4-1[12:1],3,4/5-8[12:1],6,5/4-8[12:1],3q6[1:2],45,
{1},,,{8},7h[24:41],

{16}1-3[1.640625##0.1],1-4[2.33203125##0.1],1-5[3.0234375##0.1],1-6[3.71484375##0.1],1p2[4.40625##0.1],1p3[5.09765625##0.1],1p4[5.7890625##0.1],1p5[6.48046875##0.1],1q8[7.171875##0.1],1q6[7.86328125##0.1],,,
1q5[8.4375##0.1],1v2[9.12890625##0.1],1v8[9.8203125##0.1],1v3[10.51171875##0.1],1v6[11.203125##0.1],,{24},1,,{8},1v4[11.6015625##0.1],{12},1,,

(160){16}
7,7,,7,,7,7,,7,,7,,7,7,,7,
,7,7,7,7,,7,7,7,7,,7,{48}8,7,6,{16},,,
7,7,,7,,7,7,,7,,7,,7,7,,7,
,7,7,7,7,,7,7,7,7,,7,{48}8,7,,,,,8,7,,{16},
7,7,,7,,7,7,,7,,7,,7,7,,7,
,7,7,7,7,,7,7,7-5[16:1],7,,7,,,,,
7^5[3##0.1],7v8[3.65625##0.1],,7-4[4.21875##0.1],,7-1[4.78125##0.1],7v1[5.4375##0.1],,7v6[6##0.1],,7p1[6.5625##0.1],,7-5[7.125##0.1],7-2[7.78125##0.1],,7q4[8.34375##0.1],
,7v4[8.90625##0.1],7v5[9.5625##0.1],7q5[10.21875##0.1],7q6[10.875##0.1],,7p8[11.4375##0.1],7p7[12.09375##0.1],7q2[12.75##0.75],7<2[12.65625##0.75],,7,8,,6,,

{8}2h[4:1],,1,3,{24}1,2,3,2,3,4,4,3,2,{16}1,2,
3,,2,1,{8}3,3,{24}2,3,4,2,3,4,{8}2,3,
{24}4,3,2,3,4,3,{16}2h[8:1],,3,2,{24}1,2,1,2,3,2,3,4,3,{8}4,
{24}4,3,2,4,3,2,2,3,4,2,3,4,1,,,1,2,3,4,,,4,3,2,
{2}1h[8:3],{24}3,2,3,1,2,1,3,2,3,4,3,,
{16},1,3,,{24}3,2,3,{8}1,{24}1,3,1,3,1,3,{16}1,2,2,,
{24}3,2,3,1,2,3,{8}1h[8:1],2,{24}2,3,2,4,3,2,1,3,2,4,,,
{16}1,3,4,2,{24}1,3,2,4,2,3,1,,,1,1,2,3,,,4,4,3,
{1}2,

(256)
{256}18,27,36,45,{64},,,{16},,,{256}18,27,36,45,{64},,,{16},,,
{256}18,27,36,45,{64},,,{16},,,{256}18,27,36,45,{64},,,{16},,,

(512){4}2-5[8:1],12,7-4[8:1],78,1-6[8:1],12,8-3[8:1],78,
(256){8}4^7[16:1],5^2[16:1],,,8^3[16:1],1^6[16:1],,,
(512){4}3-8[8:1],34,6-1[8:1],56,4-7[8:1],34,5-2[8:1],56,
(256){8}1^6[16:1],8^3[16:1],,,5^2[16:1],4^7[16:1],,,
(512){4}2-5[8:1],12,7-4[8:1],78,1-6[8:1],12,8-3[8:1],78,
(256){8}5-7[16:1],4-2[16:1],5-8[16:1],4-1[16:1],5-1[16:1],4-8[16:1],,,
(512){4}7v8[8:1],7v1[8:1]/8,7v2[8:1]/1,7-3[8:1]/2,7v4[8:1]/3,7v5[8:1]/4,7v6[8:1]/5,6,
,,,,,1s5[8:1]/5s1[8:1],,,

(256)
{8}1,{48}8-5[16:1]/1,2,3,{16},{8}1,{48}8-6[16:1]/1,2,3,{16},{8}1,{48}8-4[16:1]/1,2,3,{16},{8}1,{48}8-6[16:1]/1,2,3,{16},
{8}1,{48}8-5[16:1]/1,2,3,{16},{8}1,{48}8-6[16:1]/1,2,3,{16},{8}1,{48}8-4[16:1]/1,2,3,{16},{8}1,{48}8-6[16:1]/1,2,3,{16},
{8}1,{48}8-5[16:1]/1,2,3,{16},{8}1,{48}8-6[16:1]/1,2,3,{16},{8}1,{48}8-4[16:1]/1,2,3,{16},{8}1,{48}8-6[16:1]/1,2,3,{16},
{8}1,{48}8-5[16:1]/1,2,3,{16},{8}1^6[16:1],{48}81,2,3,{16},{4}1^4[16:1],{64}8,7,6,5,{16},,,
{8}2-6[16:1]/7,2/7-3[16:1],,,{64}4,3,2,1,,,,,5,6-1[16:1],7,8,,,,,{8},6/5-8[16:1],
,5/4-7[16:1],,43,,{16}8-4[16:1]/1,2,83,4,{8}5,
6^3[16:1],,6^1[16:1],7,{16}6-2[16:1],5,4-8[16:1],3,{8}2,4^7[16:1],
,4^1[16:1],,4-8[16:1],,(512){4}8-4[8:1],(256){4},
{8}5,{48}4-1[16:1]/5,6,7,{16},{8}5,{48}4-2[16:1]/5,6,7,{16},{8}5,{48}4-8[16:1]/5,6,7,{16},{8}5,{48}4-2[16:1]/5,6,7,{16},
{8}5,{48}4-1[16:1]/5,6,7,{16},{8}5,{48}4-2[16:1]/5,6,7,{16},{8}5,{48}4-8[16:1]/5,6,7,{16},{8}5,{48}4-2[16:1]/5,6,7,{16},
{8}5,{48}4-1[16:1]/5,6,7,{16},{8}5,{48}4-2[16:1]/5,6,7,{16},{8}5,{48}4-8[16:1]/5,6,7,{16},{8}5,{48}4-2[16:1]/5,6,7,{16},
{8}5,{48}4-1[16:1]/5,6,7,{16},{8}5^2[16:1],{48}45,6,7,{16},{4}5^8[16:1],{64}4,3,2,1,{16},,,
{8}6-2[16:1]/3,6/3-7[16:1],,,{64}8,7,6,5,,,,,1,2-5[16:1],3,4,,,,,{8},2/1-4[16:1],
,1/8-3[16:1],,87,,{16}4-8[16:1]/5,6,47,8,{8}1,
7,7-3[16:1],,2-6[16:1],,8,8,1,
{16}3,1,7,5,6,8,2,4,37,48,15,26,37,48,15,26,

3,6,3,6,3,6,3,6,{32}3,4,5,6,3,4,5,6,3q6[1:3],4,5,6,3,4,5,6,

{1},,,{2},{24}1,2,3,2,1,2,3,2,,,,,

{8}2-5[16:1],,12,8h[4:1],,7,12,3,
{16}2-5[16:1],2,,2,12,,8,,1-6[16:1],2,1,2,12,,,,
{16}2-5[16:1],1,2,,{8}12,8,{16}1-6[16:1],2,1,,{8}1/2-5[16:1],3,
{16}1-6[16:1]/2,,7,8,1/2-5[16:1],,4,3,2-7[16:1]/1-4[16:1],8,7,,
(37564){99999999999999999999999999999999999999999999999999999999999}12,(256){4},

(512){4}4-8[8:1],(256){8}4/5-1[16:1],(512){4}4-2[16:1],(256){8}4/5-7[16:1],(512){4}4-8[8:1],(256){8}4/5-1[16:1],(512){4}4-2[16:1],(256){8}4/5-8[16:1],
(512){4}4-1[8:1],(256){8}4/5-2[16:1],(512){4}4-7[16:1],(256){8}4/5-8[16:1],(512){4}4-1[8:1],(256){8}4/5-2[16:1],(512){4}4-7[16:1],(256){8}4/5-7[16:1],
(512){4}4-8[8:1],(256){8}4/5-1[16:1],(512){4}4-2[16:1],(256){8}4/5-7[16:1],(512){4}4-8[8:1],(256){8}4/5<4[8:5],(512){4}4q5[4:5],(256){8}45,
{1},
(512){4}8-4[8:1],(256){8}8/1-5[16:1],(512){4}8-6[16:1],(256){8}8/1-3[16:1],(512){4}8-4[8:1],(256){8}8/1-5[16:1],(512){4}8-6[16:1],(256){8}8/1-4[16:1],
(512){4}8-5[8:1],(256){8}8/1-6[16:1],(512){4}8-3[16:1],(256){8}8/1-4[16:1],(512){4}8-5[8:1],(256){8}8/1-6[16:1],(512){4}8-3[16:1],(256){8}8/1-3[16:1],
(512){4}8-4[8:1],(256){8}8/1-5[16:1],(512){4}8-6[16:1],(256){8}8/1-3[16:1],(512){4}8-4[8:1],(256){8}8/1>8[8:3],(512){4}8q1[4:3],(256){8}81,
{2},(265){2}4-1[16:1]/5-8[16:1],

{8}1,2/8-3[16:1],1,2/8-5[16:1],1,2/8-3[16:1],1,2/8-5[16:1],
{16}1,2,3/8-3[16:1],4,3,2,1/8-5[16:1],2,{8}1,2/8-3[16:1],1,2/8-5[16:1],
1,8-3[16:1]/7,6,8-5[16:1]/1,2,8-3[16:1]/6,7,8-5[16:1]/2,
{16}1,,2/8-3[16:1],3,4,,18,,4,5,4,5,4,5,4,5,
{8}5,6/4-7[16:1],5,6/4-1[16:1],5,6/4-7[16:1],5,6/4-1[16:1],
{16}5,6,7/4-7[16:1],8,7,6,5/4-1[16:1],6,{8}5,6/4-7[16:1],5,6/4-1[16:1],
5,{24}4-7[16:1]/6,7,6,{8}5,6/4-1[16:1],3,4p7[4:1]/5q2[4:1],6,45,
,,1-5[16:1],,(272){2}8-4[16:1],

{16}3,,4-7[16:1]/2,3,3,,4-1[16:1]/6,,5,3,4-7[16:1]/2,,5,3,4-1[16:1]/2,,
8,7,8/4-7[16:1],7,8,1,8/4-1[16:1],1,8-3[16:1],,4-7[16:1],,8,,4-1[16:1],,
{32}8,7,6,5,{16}4-7[16:1]/6,7,{32}8,1,2,3,{16}4-1[16:1]/2,1,{8}8,2/4-7[16:1],8,6/4-1[16:1],
,4-7[16:1],,4-1[16:1],,4-7[16:1],,,
{24}1,2,3,4/8-5[16:1],5,6,7,6,5,4/8-3[16:1],3,2,{8},8-5[16:1]/1,{16}2,2,1/8-3[16:1],,
,,4/8-5[16:1],5,4,5,4/8-3[16:1],3,4,,8-5[16:1]/6,7,6,5,6/8-3[16:1],7,
{24}4,3,2,{8}1/8-5[16:1],{24}4-1[16:1],5,6,{8}7/8-3[16:1],4-7[16:1],8-5[16:1],,,
(280){8}1,1,1,1,8,8,8,8,

(290){16}7h[1:1]/1,2,3,4,5,6,8,1,2,1,8,6,5,4,3,2,
{4}1,8,2,7,
{1}1h[1:2]/8h[1:2],,,

(300){16}1b/8b,
(600){8}1b/8b,
(1200){4}1b/8b,
(2400){2}1b/8b,
(4800){1}1b/8b,
(9600){0.5}1b/8b,
(19200){0.25}1b/8b,
(38400){0.125}1b/8b,
(76800){0.0625}1b/8b,
(153600){0.03125}1b/8b,
(307200){0.015625}1b/8b,
(614400){0.0078125}1b/8b,
(1228800){0.00390625}1b/8b,
(2457600){0.001953125}1b/8b,
(4915200){0.0009765625}1b/8b,
(9830400){0.00048828125}1b/8b,
(19660800){0.000244140625}1b/8b,
(39321600){0.0001220703125}1b/8b,
(78643200){0.00006103515625}1b/8b,
(157286400){0.000030517578125}1b/8b,
(314572800){0.0000152587890625}1b/8b,
(629145600){0.00000762939453125}1b/8b,
(1258291200){0.000003814697265625}1b/8b,
(2516582400){0.0000019073486328125}1b/8b,
(5033164800){0.00000095367431640625}1b/8b,
(10066329600){0.000000476837158203125}1b/8b,
(20132659200){0.0000002384185791015625}1b/8b,
(40265318400){0.00000011920928955078125}1b/8b,
(80530636800){0.000000059604644775390625}1b/8b,
(161061273600){0.0000000298023223876953125}1b/8b,
(322122547200){0.00000001490116119384765625}1b/8b,
(644245094400){0.000000007450580596923828125}1b/8b,
(1288490188800){1}3b/6b,

名前:
コメント:

タグ:

+ タグ編集
  • タグ:

このサイトはreCAPTCHAによって保護されており、Googleの プライバシーポリシー利用規約 が適用されます。

最終更新:2015年11月28日 21:44