Axeria

BPM EASY BASIC ADVANCED EXPERT MASTER
193 4 6 7+ 11+ 14

EXPERT MASTER Re:MASTER
譜面制作者 mai-Star Jack -

EASY


BASIC


ADVANCED


EXPERT


MASTER

(193){8}
2^7[16:3],8^5[16:3],6^3[16:3],4^1[16:3],,,,,
,6,5,,3,4,,8,
,3,4,,6,5,,1,
,7,5,,2,4,,8,
7^2[16:3],1^4[16:3],3^6[16:3],5^8[16:3],,,,,
,2,1,,7,8,,45,
,6,8,,3,1,,27,
,84,73,2-7[8:1]/6-3[8:1],,26,,48,

1-4[8:1]/5-8[8:1],,15,,7,6,5,48,,
7-3[8:1],8,7,2,4,5,7,
4-1[8:1]/8-5[8:1],,48,,2,3,4,15,,
2-6[8:1],1,2,7,5,4,2,
3-6[8:1]/7-2[8:1],,73,,2,1,8,27,,
6-2[8:1],5,6,3-7[8:1],4,3,8,
1^6[8:1]/8^3[8:1],,18,,45,4h[4:1]/5h[4:1],,,
2^7[8:1],,2,6^3[8:1],,6,,,
48,,1^4[8:1]/5^8[8:1],8^5[8:1]/4^1[8:1],,,,48,

1-6[8:1],8,1,7-4[8:1],3,7,2-5[8:1],6,2,
8-3[8:1],2,8,1^4[8:1],5,6,7,
8-3[8:1],1,8,2-5[8:1],6,2,7-4[8:1],3,7,
1-6[8:1],7,1,8^5[8:1],4,3,2,
1-5[8:1],5,1,7-3[8:1],3,7,2-6[8:1],6,2,8-4[8:1],4,8,
1^4[8:1],8^5[8:1],1,8,2-7[8:1],7,2,6-3[8:1],3,6,2,3,
{16}45,,1-5[8:1]/8-4[8:1],27,36,,18,,,,6,,5,,4,,
{8}3^8[8:1],4,5,6^3[8:1],7,8,1^6[8:1],2,3,
4^1[8:1],5,6,7-4[8:1],8-3[8:1],7,8,
6^1[8:1],5,4,3^6[8:1],2,1,8^3[8:1],7,6,
5^8[8:1],4,3,2-5[8:1],1-6[8:1],2,1,
4^1[8:1],5,6,7^4[8:1],8,1,2^7[8:1],3,4,
5^2[8:1],6,7,8-4[8:1],1-5[8:1],8,1,
7-2[8:1],2,7,3-6[8:1],6,3,7,6,
45,{24}1,8,7,6-2[8:1],5,4,3-7[8:1],2,1,{8}6,3,,18,

1-6[8:1]/2-5[8:1],,12,,7,6,5,4h[2:1],,8-4[8:1],,8,3,4,5,6,
7-4[8:1]/8-3[8:1],,78,,2,3,4,5h[2:1],,1-5[8:1],,1,6,5,47,,
3-8[8:1]/4-7[8:1],,34,,1,8,7,6h[2:1],,2-6[8:1],,2,7,6,5,4,
5-2[8:1]/6-1[8:1],,56,,8,1,2,3h[2:1],,7-3[8:1],,7,2,6^3[8:1],,36,
1-5[8:1],8-4[8:1],1,8,3,4,5,6h[2:1],,2-6[8:1],,2,7,6,5,4,
3-8[8:1]/7-4[8:1],,37,,1,2,3,4h[2:1],,8-4[8:1],,8,3,4,25,,
8-4[8:1],1-5[8:1],8,1,6,5,4,3h[2:1],,7-3[8:1],,7,2,3,4,5,
6-1[8:1]/2-5[8:1],,62,,8,7,6,5h[2:1],,1-5[8:1],,1,
{12}48,7,6,15,2,3,

{16}84,,3,,2,,1,8,,6,5,,2,,13,,
8,,7,,6,,5,4,,2,1,,6,,57,,
8,,1,,2,,3,4,,6,5,,2,,13,,
2,,3,,4,,5,4,5,6,5,,7,,68,,
7,,6,,5,,4,2,,5,7,,3,,2,,
{8}1^4[16:3],8,7,6,5^8[16:3],4,3,2,{2}1,,,2b/7b,

{16}3,4,3,2,3,,5,4,5,4,5,,2,1,2,,
6,5,6,7,6,,4,5,4,5,4,,7,8,7,,
2,1,2,1,2,,6,5,6,7,6,,2,3,2,,
7,8,7,8,7,,3,4,3,2,3,,7,6,7,,
3,4,2,4,1,,7,8,7,6,7,,2,1,2,,
6,5,7,5,8,,2,1,2,3,2,,7,8,7,,
3,4,3,2,3,,6,5,6,7,6,,1,8,1-4[8:1],,,,
{8}1/5-8[8:1],,5/2-7[8:1],,2/6-3[8:1],,16,2,3-6[8:1],,
3/7-2[8:1],,7/4-1[8:1],,4/8-5[8:1],,8/1-5[16:1],,15,
{16}4-1[8:1]/8-5[8:1],73,26,,48,,,,
2,6,2,6,2,,7,3,7,3,7,,4,3,2,1,
7,8,6,8,5,,2,1,3,1,4,,8,7,6,5,
3,4,3,2,3,,5,4,5,6,5,,1,2,3,4,
6,5,6,7,6,,4,5,4,3,4,,6,7,8,1,
{2}2h[2:3]/6h[2:3],,,{16},,15,48,37,,15,,

{8}6,6^3[4:1],3,3^8[4:1],,8^5[4:1],
,5,4,3,2,1^4[4:1],,4^7[4:1],
,7,8,1,2,3,3^6[8:1],,
{24}7,8,1,{4}2,45,68,13,{8}27,
3^6[16:3],5^8[16:3],7^2[16:3],2,,6^3[16:3],4^1[16:3],2^7[16:3],7,,,,
1,2-6[8:1],,8,7-3[8:1],,,,2,4,5,{4}7,24,57,13,{8}68,7,6-3[8:1],,
6/2-7[8:1],,2/5-8[8:1],,5/1-4[8:1],,1/8-4[16:1],,48,
{16}1-4[8:1]/5-8[8:1],26,{8}37,15,,
1-5[8:1],8,7-3[8:1],6,5-1[8:1],4,3,2,
{16}1,8,2,7,1,8,2,7,3,6,4,5,3,6,4,5,
3h[256:1],6h[256:1],2h[256:1],7h[256:1],1h[256:1],8h[256:1],2h[256:1],7h[256:1],
3h[256:1],6h[256:1],4h[256:1],5h[256:1],3h[256:1],7h[256:1],4h[256:1],8h[256:1],
2h[256:1],7h[256:1],3h[256:1],6h[256:1],1h[256:1],5h[256:1],8h[256:1],4h[256:1],
3h[256:1]/7h[256:1],4h[256:1]/8h[256:1],1h[256:1]/5h[256:1],2h[256:1]/6h[256:1],
3h[256:1]/7-3[1:3],4h[256:1]/8h[256:1],1h[256:1]/5h[256:1],2h[256:1]/6h[256:1],
{1}3h[256:1]/7h[256:1],,,,E

  • まだ無かったので取り敢えず一通り作りました。ミス等ありましたら修正お願いします -- 名無しさん (2015-11-29 15:29:24)
  • エラーを修正しました -- 名無しさん (2015-12-01 20:23:10)
  • ラストのホールドや道中のリズムが違うところなど修正しました -- 名無しさん (2015-12-04 19:51:14)
  • スライドの速度が多数間違ってます。ちゃんと譜面確認して修正してください。 -- 名無しさん (2017-02-08 00:48:56)
名前:
コメント:

タグ:

+ タグ編集
  • タグ:

このサイトはreCAPTCHAによって保護されており、Googleの プライバシーポリシー利用規約 が適用されます。

最終更新:2020年06月15日 19:50