7thSense

BPM EASY BASIC ADVANCED EXPERT MASTER
150 4 6 8 10+ 14

EASY


BASIC


ADVANCED


EXPERT


MASTER

(150)
{32}1,2,3,4,5,6,7,8,1,2,3,4,5,6,7,8,
{12}1h[4:3],2,3,4,5,6,
{16}7>4[2:1],,,,,,,,,,
{32}15,26,37,8h[32:17]/4,
{4},,7h[2:1],,6h[2:1],,5h[4:1],
1h[2:1],,2h[2:1],,3h[2:1],,4>5[1:1]*q5[1:1],
4b,,,,,,,
{8}16,45,,83,,45,,68,,45,,18,6-3[8:1]/3,,
1,1h[4:1],,3h[4:1],,5h[4:1],,7h[4:1],,1h[4:1],,3,3-6[8:1],,
8,8h[4:1],,6h[4:1],,4h[4:1],,2h[4:1],,8h[4:1],,
{32}6,,6,,1,2,3,4,5,6,7,8,1v3[8:1]b/5v7[8:1]b,,,,,,,,,,,,,,,,
{16},,1,2,,,6,5,,,7,,8,,
1,,2q4[4:1],,8,7,6,,,,,,8,,
,,7,,,,6,,,,7,,,,
6,,7p5[4:1],,1,2,3,,,,,,,,
,,3,,4,,5,,,,,,,,
4,,5pp2[4:1],,,,
{32}1,2,3,,,,,,,,,,4,,,,
{8},3,,2,,15,26,
{32}37,,,,48,1,2,3,4,5,6,7,
{4}3/8h[2:1],2,1-3[8:1],
{16}1-5[8:1]/6,,6,,17,7,,,18,18,,24,,57,
,2^5[8:1]/4,,,6,6,,7,7,,8-6[8:1]/1,,,,
8-4[8:1]/3,,3,,28,2,,,18,18,,57,,24,
,7^4[8:1]/5,,,3,3,,2,2,,1-3[8:1]/8,,,,
1-5[8:1]/6,,6,,17,7,,,18,18,,24,,57,
,2^5[8:1]/4,,,6,6,,7,7,,8-6[8:1]/1,,,,
8-4[8:1]/3,,3,,28,2,,,18,18,,57,,24,
,18,,,6,,6,3,,3,45,,45,,
3,7,3,7,2,6,2,6,1,5,1,48,,26,,48,
3,7,2,6,1,5,8,8,6,6,4,4,
6,2,6,2,7,3,7,3,8,4,8,15,,37,,15,
6,2,7,3,8,4,
{24}7,6,5,2,3,4,7,6,5,
{16}1,8,
2,7,3,6,4,5,4,6,4,35,,25,,15,
2,7,3,6,4,5,2,2,4,4,8,8,,,
27,,36,36,,18,,7,6,5,4,3,2,1,
4p7[8:1]/8p3[8:1],,,,,,
,,48,15,26,37,
8-4[8:1]b/4,,,2-6[8:1]b/8,,,7-3[8:1]b/2,,,5V38[8:1]b/7,
,,8,,6,,5,5,5,5,
1-5[8:1]b/5,,,7-3[8:1]b/1,,,2-6[8:1]b/7,,,4V61[8:1]b/2,
,,1V37[8:1],,3,,,,,,
8-4[8:1]b/4,,,2-6[8:1]b/8,,,7-4[8:1]b/2,,8,,
1,,2,,3,,45,,45,,
1-5[8:1]b/5,,,7-3[8:1]b/1,,,2-6[8:1]b/7,,,4V61[8:1]b/2,
,,1,,3,,48,37,26,15,
4^7[8:1]b/8^3[8:1]b,,,4-1[8:1]b/8-5[8:1]b,,,8-3[8:1]b/4,,,6V48[8:1]b,
,,1,,2,,3,3,3,,
8^6[8:1]b/1h[16:3],,,,8-3[8:1]b/1,,1,,8-5[8:1]b/2h[16:3],,
,,2z6[8:1]/8,,2,,,,,,
{32}7,,,,1b/8b,2b/7b,3b/6b,4b/5b,,,,,18,,,,
{12}26,26,26,
{16}3V15[8:1]/7,,48,,7,,6,,
8-4[8:1],,,4w8[4:1],,,,,,,
,,,,,,1p4[8:1]/8q5[8:1],,,,
{8}1b/8b,,2,2h[4:1],,6,6h[4:1],,
4,4h[4:1],,8,8h[2:1],7,6,5,
4q5[4:1],,5<4[8:3],,,,,,
{16}2b/7b,,,,56,,56,,,,34,,34,,,,
5,4,5,,36,,27,,8qq5[2:1]/1,,,,,,,,,,
{32}4,3,2,1b,,,,,,,,,,,,,
{16},,,,1p5[8:1]/5p1[8:1],26,37,48,
1>4b[8:1]/5<8b[8:1],,,,15,,,,1,2,8>3[8:1]*<5[8:1],3,7,,
8w4b[8:1],,,,8,,,,8,7,1>4[8:1]*<6[8:1],6,2,,
1w5b[8:1],,,,1,,,,35,,1h[4:1]/7>5[2:1],,,,
,,,,6,,7,,8,,1,,2,,
3b,6,4,6,5,6,7,6,8,6,1,6,2,2,
6,3,5,3,4,3,2,3,1,3,8,3,7,7,
3,5,4,6,4,5,2,4,3,7,5,6,1,3,
2,8,6,7,1b/8b,,8,7,6,
{32}3,4,5,6,7,8,1,2,3V51b[8:1]/5h[4:1],,
{16},,,,,,,,1,7,2,6,35,,
6V48b[8:1]/4h[4:1],,,,,,,,8,2,7,3,46,,
5h[8:1]/7h[8:1],,,2h[8:1]/4h[8:1],,,6h[8:1]/8h[8:1],
,,1h[8:1]/3h[8:1],,,5,4,
,3h[8:1]/7h[8:1],,,1h[8:1]/5h[8:1],,,
{24}2-7[16:1]/6-3[16:1],37,48,15,,,
{16},,4,5,3,6,2,7,
1b/8b,,,,2,,6,,,,3q5[2:1],,7q1[8:3],,,,,,,,,,,,,,,,
{4}3-7b[8:1]/4b,2-6b[8:1]/3b,1-5b[8:1]/2b,8-4b[8:1]/1b,
7-3b[8:1]/8b,6-2b[8:1]/7b,5w1b[8:1]/6b,5b,
{8},,1h[512:1],,,,2h[512:1],,,,3h[512:1],,,,4h[512:1],,,,
5h[512:1],,,,6h[512:1],,,,
7,7p1[4:1],,1p3[4:1],,3p5[4:1],,5^2[4:1],,2<6[4:1],,5,4,,
2,2q8[4:1],,8q6[4:1],,6q4[4:1],,4^7[4:1],,7>3[4:1],,4,5,,
{16}6,5,6,7,6,,3,4,3,,7,8,7,,2,1,2,,5,4,6,4,7,4,
{32}8,1,2,3,4,5,6,7,
{16}4,5,4,3,4,,6,5,6,,2,1,2,,7,8,7,,4,5,3,5,2,5,
{32}1,8,7,6,5,4,3,2,
{16}6,5,6,7,6,,3,4,2,,7,8,6,,2,1,3,,6,5,7,5,8,5,
{32}1,2,3,4,5,6,7,8,
{16}1-6b[8:1]/5-2b[8:1],,,15,,,7V15[8:1]/3,,,,3,,2,,
1>4b[8:1]*<6[8:1],,,,1b,,,,5,4,
{32}3b,2b,1b,8b,7b,6b,5b,
{1},,
E


  • MASTERの書式ミスでエラーを吐くので直しときました。 -- 嵐雅 (2021-09-10 22:49:06)
名前:
コメント:

タグ:

+ タグ編集
  • タグ:

このサイトはreCAPTCHAによって保護されており、Googleの プライバシーポリシー利用規約 が適用されます。

最終更新:2021年09月10日 22:49