Contrapasso -paradiso-

BPM EASY BASIC ADVANCED EXPERT MASTER
243 - - - - 12

EASY


BASIC


ADVANCED


EXPERT


MASTER


(243){1}5,6,7,8,

{4}
1^3[8:1]*^7[8:1],,5-1[8:1],2^4[8:1],
8^6[8:1],,4,5,
6-8[8:1]*-3[8:1],,2-4[8:1]*-7[8:1],,
5-2[8:1]*-7[8:1],,1-3[8:1]*-6[8:1],,
8^6[8:1]*^2[8:1],,4-8[8:1],7^5[8:1],
1^3[8:1],,5,4,
3-1[8:1]*-6[8:1],,7-5[8:1]*-2[8:1],,
4-7[8:1]*-2[8:1],,8-6[8:1]*-3[8:1],,

4^1[8:1]/5^8[8:1],,6-2[8:1],5^3[8:1],
7^1[8:1],,3-7[8:1],4^6[8:1],
2^8[8:1],,5w1[8:1],,
4w8[8:1],,36,,
2b>8[2:1]/7b<1[2:1],,,,
2-5[8:1]/7-4[8:1],,3-8[8:1]/6-1[8:1],,

{8}
6h[4:1],,5,6,47,,12,,
3,4,5,6,7/8-4[8:1],,,,
3h[4:1],,4,3,52,,87,,
6,5,4,3,2/1-5[8:1],,,,
78,,6,5,4-8[8:1]/3,,3,,
21,,3,4,5-1[8:1]/6,,6,,
27,,3,3,{16}8,7,{8}6,4,,
{16}1,2,3,,7,6,5,,3,4,5,,8b,,,,

{8}
6/2-5[8:1],,8-6[8:1],,1-5[8:1],,8-4[8:1],,
2-6[8:1],,7-4[8:1],,3,,1,1,
4/7-4[8:1],,2-6[8:1],,8-4[8:1],,1-6[8:1],,
7-3[8:1],,1-4[8:1],,7,7,7,4,
6/2-6[8:1],,8-5[8:1],,1-5[8:1],,8-4[8:1],,
2-6[8:1],,7-4[8:1],,3,,1,1,
6,8,6,3,1,3,8,8,
2,2,7,7,18,18,18,,

3/7-4[8:1],,1-3[8:1],,8-4[8:1],,1-5[8:1],,
7-3[8:1],,2-5[8:1],,6,,8,8,
5/2-5[8:1],,7-3[8:1],,1-5[8:1],,8-3[8:1],,
2-6[8:1],,8-5[8:1],,2,2,2,5,
3/7-3[8:1],,1-4[8:1],,8-4[8:1],,1-5[8:1],,
7-3[8:1],,2-5[8:1],,6,,8,8,
3,2,3,6,7,6,1,1,
7,7,2,2,81,81,81,,

4/2-4[8:1],,52,,6/2-6[8:1],,72,,
8/2-8[8:1],,72,,62,,8,8,
5/7-5[8:1],,47,,3/7-3[8:1],,27,,
1/7-1[8:1],,27,,37,1,1,1,
4/2-4[8:1],,52,,6/2-6[8:1],,72,,
8/2-8[8:1],,72,,62,,8,8,
3h[4:1]/4h[4:1],,,2h[4:1]/5h[4:1],,,18,18,
6h[4:1]/5h[4:1],,,7h[4:1]/4h[4:1],,,81,81,

2/4^7[4:1],,3,,3,,3,,
6/8^3[4:1],,7,,7,,6,6,
7/5^2[4:1],,6,,6,,6,,
13,,3,3,24,,57,,
2-4[8:1]/8,,5,,7-5[8:1]/1,,4,,
3-1[8:1]/4,,8,,6-8[8:1]/5,,1,1,
34,,26,,56,,37,,
15,15,26,26,37,37,48,48,

{4}
5pp8[1:1]/1,,,,
,4h[4:1],3h[4:1],2h[4:1],
1pp4[1:1],,,,
,,,8h[4:1],
7pp2[1:1],,,,
,,5h[4:1],4h[4:1],
3s7[2:1],,,,
45,,2b/7b,,

{8}
1,1^3[8:1],,5/1-5[8:1],,6,6,,
7,7-3[8:1],,2,2-5[8:1],,6,,
8-4[8:1],,2,2^4[8:1],,6/2-6[8:1],,8,
,7,7^5[8:1],,4/7-3[8:1],,2,,
1,1^3[8:1],,4/1-5[8:1],,7,7,7,
,5,5-7[8:1],,2-4[8:1],,8,8<2[8:3],
,,,,1b,,2h[4:1]/7h[4:1],,
,18,,2,7,3,6,4,

7,7^4[8:1],,1,1^4[8:1],,8,8-4[8:1],
,2-6[8:1],,7,7-4[8:1],,3,,
,18,18,2/7^5[8:1],,4/7-3[8:1],,3,
,2,2^4[8:1],,5/2-6[8:1],,6,,
8,8^6[8:1],,5/8-4[8:1],,2,2,2,
,68,,,{16}4h[8:1]/5h[8:1],,,3h[8:1]/6h[8:1],,,{8}2-5[8:1]/7-4[8:1],
,27,,,18,,3h[4:1]/6h[4:1],,
,4,5,3,6,2,7,1,

6/8z4[2:1],,7,,7,,7,,
24,,56,,8,8,8,8,
3/1s5[2:1],,2,,2,,2,,
75,,43,,18,18,18,,
5,5,4,4,6,6,3,3,
7,7,2,2,8,8,1,1,
{16}
8,7,6,5,1,2,3,4,7,6,5,4,2,3,4,5,
7,6,5,4,73,2,1,8,{8}73,,1b/8b,,

2-6[8:1],,2/7-4[8:1],,7/3-8[8:1],,3/6-2[8:1],,
6/1-5[8:1],,1-3[8:1]/8-4[8:1],,18,,6,6,
8/3-8[8:1],,3/6-3[8:1],,6/1-6[8:1],,1/5-1[8:1],,
5/3-1[8:1],,3,,46,5,35,4,
7-3[8:1],,7/2-5[8:1],,2/6-1[8:1],,6/3-6[8:1],,
3/8-4[8:1],,8-6[8:1]/1-5[8:1],,81,,3,3,
16,7,7,38,2,2,36,36,
4-2[8:1]/5-7[8:1],,45,,{16}18,27,{8}36,3b/6b,,

6/2-6[8:1],,2/7-4[8:1],,7/3-8[8:1],,3/6-2[8:1],,
6/1-5[8:1],,1-3[8:1]/8-4[8:1],,18,,6,6,
3/8-3[8:1],,2-5[8:1],,2-7[8:1]/6-3[8:1],,26,,
48,48,2-5[8:1]/6-1[8:1],,26,,{16}48,37,{8}26,
4-7[8:1]/8-3[8:1],,48,,26,26,26,,
48,48,37,37,26,26,{32}51,8,7,6,5,4,3,2,
{8}15,,,48,,,27,,
4-2[8:1]/5-7[8:1],,45,,{16}18,27,{8}36,3b/6b,,

7-4[8:1]/8-3[8:1],,78,,16,,34,25,
6/1^4[8:1],,7,7,68,,36,27,
1-5[8:1]/8-4[8:1],,18,,2-5[8:1]/7-4[8:1],,27,,
27,8,8,8,1-6[8:1]/2-5[8:1],,12,,
38,,56,47,3/8^5[8:1],,2,2,
13,,68,,27,1,1,1,
68,7,7,13,2,2,36,27,
1-3[8:1]/8-6[8:1],,1-5[8:1]/8-4[8:1],,1^3[8:1]/8^6[8:1],,1b/8b,,

7-4[8:1],7,2-6[8:1],2,8-4[8:1],8,3,3,
5,5,26,26,4,4,37,37,
2-5[8:1],2,7-3[8:1],7,1-5[8:1],1,6,6,
4,4,37,37,5,5,26,26,
1-5[8:1],1,8-4[8:1],8,2^5[8:1],2,6^1[8:1],6,
4p8[8:1],4,5q1[8:1],5,3^8[8:1],3,7^4[8:1],7,
3qq1[8:1],3,7qq5[8:1],7,2pp4[8:1],2,6pp8[8:1],6,
4-2[8:1],4,5-7[8:1],5,4-8[8:1],4,5-1[8:1],5,

{1}4b>5[4:13],,,{2},1-5[8:1],

名前:
コメント:

タグ:

+ タグ編集
  • タグ:

このサイトはreCAPTCHAによって保護されており、Googleの プライバシーポリシー利用規約 が適用されます。

最終更新:2016年07月30日 09:35