Nitrous Fury

BPM EASY BASIC ADVANCED EXPERT MASTER
144 3 6 7+ 11 13+

EASY


BASIC


ADVANCED


EXPERT


MASTER

(144)
{4}4,4,{24}4,,,6,5,6,{16}3,,,,8,,,6,6,,1,,,3,3,,8,,,,
{4}5,5,{24}5,,,3,4,3,{16}6,,,,1,,,3,3,,8,,,6,6,,1,,,,
7,,3,5,3,,6,4,6,,2,4,2,,7,5,7,,,4,4,,2,,,5,5,,7,,,,
2,,6,4,6,,3,5,3,,7,5,7,,2,4,2,,,5,5,,7,,,4,4,,2,,,,
7,7,7,7,,,2,2,2,2,,,6,3,,,8,8,8,8,,,1,1,1,1,,,
48,1<4[8:3]/5>8[8:3],,,,,,,,,,,,,6,6,2b,,,,

7,8,,8,6,,6,1,,1,7,,3,,8,,2,1,,1,3,,3,8,,8,2,,7,,1,,
6,5,,5,7,,7,4,,4,6,,2,,5,,3,4,,4,2,,2,5,,5,3,,6,,4,,
7,1,,1,8,,8,2,,2,6,,4,,5,,2,,,6,5,,7,,,3,4,,1,,8,,
2,2,2,2,,,7,7,7,7,,,4,4,5,5,2,2,2,2,,,7,7,7,7,,,4,4,5,5,
2,2,2,2b,,,7,7,7,7b,,,4,4,5,5,
{4}3,6,2,8,

{16}
2,3,4,5,4,3,2,3,4,5,4,3,2,3,4,5,4,3,2,3,4,5,4,3,2,3,4,5,6,,,,
7,6,5,4,5,6,7,6,5,4,5,6,7,6,5,4,5,6,7,6,5,4,5,6,7,6,5,4,3,,,,
2,3,4,6,5,4,3,4,5,7,6,5,2,3,4,6,5,4,3,4,5,7,6,5,2,3,4,5,6,,
{24}8,,,,,,8,7,6,5,,,1,,,,,,1,2,3,4,,,
{16}5,,3,,,7,,,2,,,,8,1,7,2,6,3,

{16}
5,5,5,2,,,3,3,3,8,,,7,7,2,2,4,4,4,7,,,
6,6,6,1,,,3,3,7,7,1,,5,5,5,2,,,3,3,3,8,,,7,7,2,2,8,,,,
{32}
6,5,4,3,2,,,,3,4,5,6,7,,,,
{16}
4,4,4,7,,,6,6,6,1,,,2,2,7,7,5,5,5,2,,,
3,3,3,8,,,6,6,2,2,8,,4,4,4,7,,,6,6,6,1,,,2,2,7,7,1,,8,,,,
{32}
8,1,2,3,4,,,,1,8,7,6,5,,,,

{16}7,,3,3,6,,8,4,,
{32}2h[16:3],,1,8,7,6,5,,,,
{16}3,,3,,1,5,,
{32}7h[16:3],,8,1,2,3,4,,,,
{16}5,,5,4,6,,3,,1,5,,
{32}7h[16:3],,8,1,2,3,4,,,,
{16}6,,6,,8,4,,
{32}2h[16:3],,1,8,7,6,5,,,,
{16}4,,4,5,3,,6,,8,4,,
{32}2h[16:3],,1,8,7,6,5,,,,
{16}3,,3,,1,5,,
{32}7h[16:3],,8,1,2,3,4,,,,
{16}5,,5,4,6,,

1,,2,8,,7,1,,6,8,6,2,,7,1,,
8,,7,1,,2,8,,3,1,3,7,,2,8,,
1,7,2,6,3,5,3,1,4,8,5,7,2,8,3,7,
4,6,8,6,1,5,2,4,3,,3,,
8,2,7,3,6,4,6,8,5,1,4,2,7,1,6,2,
5,3,1,3,8,4,7,5,6,,6,,
3,5,2,6,1,7,4,6,3,7,2,8,2,4,1,5,
8,6,5,7,4,8,3,1,2,,2,,
1,3,8,4,7,5,6,6,8,6,1,5,2,4,3,3,
1,3,8,4,7,5,6,6,8,6,1,5,2,4,3,3,
1,3,8,4,7,5,6,6,8,6,1,5,2,4,3,3,
7,7,7,7,8,1,2,2,2,2,1,8,7,2b,,,

7,1,7,3,7,5,7,2,4,2,6,2,8,2,6,3,7,,,{48}7,6,5,{16}4,,2,,,{48}2,3,4,{16}5,,7,,,,
2,8,2,6,2,4,2,7,5,7,3,7,1,7,3,6,2,,,{48}2,3,4,{16}5,,7,,,{48}7,6,5,{16}4,,2,,,,
8,2,8,4,8,6,8,1,3,1,5,1,7,1,8,2,1,,,{48}1,8,7,{16}6,,8,,,{48}8,1,2,{16}3,,8,,,,
1,7,1,5,1,3,1,8,6,8,4,8,2,8,1,7,,,,,,,,,,,{24}4,5,3,6,,,,,,

3,5,3,6,4,6,5,6,4,5,3,4,3,5,4,6,4,5,{16}2,4,5,7b,{1},,,,E

名前:
コメント:

タグ:

+ タグ編集
  • タグ:

このサイトはreCAPTCHAによって保護されており、Googleの プライバシーポリシー利用規約 が適用されます。

最終更新:2020年06月14日 20:15