さいたま2000(創作譜面:コバルト)

曲名 さいたま2000
制作者名 LindaAI-CUE
音源 https://www.youtube.com/watch?v=SfvNsniw-rM
譜面動画
制作者コメント 初めて譜面記載をするので至らぬ点があるかもしれません…編集の仕方ヨクワカンネ。譜面配布希望というコメントをいただいたので載せてみた次第です。simaiだとFirst=1.72です。舞平方は検証してませんごめんなさい。
BPM EASY BASIC ADVANCED EXPERT MASTER
200 - - - - 12

EASY


BASIC


ADVANCED


EXPERT


MASTER

(200)
{1} ,
{4} 1bpp5[4:23]/6bpp2[4:23],,,,
{1} ,,,,,,
{4} 1,7,2,5,
{8} 6,4,8,3,{32}7,8,1,2,3,4,5,6,{4}7b/1b,

{8} 73,7,71,7,72,7,74,,
36,3,37,3,35,3,3b/8b,,
64,6,62,6,63,6,61,,
24,2,21,2,26,2,2b/8b,,
54,5,52,5,53,5,57,,
47,4,48,4,46,4,4b/1b,,
83,8,86,8,82,8,85,,
17,1,13,1,16,1,1b/2b,,

68,6,64,6,63,3,31,,
26,2,23,2,2/8^5[32:1],8,{32}1b/8b,2,3,4,{8},
45,4,42,4,48,8,86,,
53,5,56,5,5/1^4[32:1],1,{32}1b/8b,7,6,5,{8},
81,8,87,8,84,4,43,,
43,4,48,4,4/7^4[32:1],7,{32}3b/7b,2,1,8,{8},
18,1,12,1,15,5,56,,
56,5,51,5,5/2^5[32:1],2,{32}2b/6b,7,8,1,{8},

1-4[32:1],1,{32}8,7,6,5,{8},4-1[32:1],4,{32}5,6,7,8,{8},
8-5[32:1],8,{32}1,2,3,4,{8},5-8[32:1],5,{32}4,3,2,1,{8},
1^4[32:1],1,{32}8,7,6,5,{8},4^1[32:1],4,{32}5,6,7,8,{8},
8^5[32:1],8,{32}1,2,3,4,{8},5^8[32:1],5,{32}4,3,2,1,{8},
2^5[32:1],2,{32}6,7,8,1,{8},5^2[32:1],5,{32}1,8,7,6,{8},
7^4[32:1],7,{32}3,2,1,8,{8},4^7[32:1],4,{32}8,1,2,3,{8},
1p4[32:1]/5,15,{32}5,6,7,8,{8},4/8q5[32:1],48,{32}4,3,2,1,{8},
15,15,{32}15,26,37,48,{8},1-6[32:1]/5-2[32:1],15,15,,

1bV35[4:1],,5,{16}5,6,{8}7-3[16:1],7,,,
2bV46[4:1],,6,{16}6,7,{8}8-4[16:1],8,,,
3bV57[4:1],,7,{16}7,8,{8}1-5[16:1],1,,,
4bV68[4:1],,8,{16}8,1,{8}2-6[16:1],2,,,
8bV64[4:1],,4,{16}4,3,{8}2-6[16:1],2,,,
7bV53[4:1],,3,{16}3,2,{8}1-5[16:1],1,,,
6bV42[4:1],,2,{16}2,1,{8}8-4[16:1],8,,,
5bV31[4:1],,1,{16}1,8,{8}7-3[16:1],7,,,

1b-6[16:1],1,8-3[16:1],8,2-5[16:1],2,7-4[16:1],7,
1b-6[16:1],1,8-3[16:1],8,2-5[16:1],2,7-4[16:1],7,
1bv4[16:1],1,8v5[16:1],8,2v5[16:1],2,7v4[16:1],7,
1bpp3[16:1],1,8qq6[16:1],8,2pp4[16:1],2,7qq5[16:1],7,
{4} 2-7[16:1],8-4[16:1],4pp5[16:1],,
1^3[16:1],1,8<4[16:1],8,
2-7[16:1],8-5[16:1],3v4[16:1],,
8-2[16:1]/7-3[16:1],,1-5[16:1]/4pp5[16:1],,

{8} 5h[2:1],,3,3,4h[2:1],6,6,,
5h[2:1],2,2,2,4h[2:1],7,7,,
5h[2:1],3,3,3,4h[2:1],6,6,6,
{16} 5h[2:1],,6,7,8,1,2,3,4h[2:1],,3,2,1,8,7,6,
{8} 5h[2:1],,7,7,4h[2:1],2,2,,
5h[2:1],6,6,6,4h[2:1],3,3,,
5h[2:1],7,7,7,4h[2:1],2,2,2,
{16} 5h[1:1],,6,7,8,1,2,3,4,,6,7,{32}8,1,2,3,4,,6,7,

{1} ,
{16} 1h[64:1],8h[64:1],1h[64:1],7h[64:1],
2h[64:1],8h[64:1],1h[64:1],7h[64:1],
3h[64:1],8h[64:1],1h[64:1],5h[64:1],
{4} ,
{1} ,

{8} 2-8[16:1]/6-4[16:1],,26,,8q4[16:1]/4q8[16:1],84,,,
{16} 18,,3,2,1/8-3[16:1],,7,,1-6[16:1]/8,,3,,18,7,6,,
{8} 4-6[16:1]/8-2[16:1],,48,,2p6[16:1]/6p2[16:1],2-8[16:1]/6-4[16:1],,,
{16} 8,,15,,26,37,48,15,2-5[16:1]/6-1[16:1],,84,,26,,,,
{8} 1-3[16:1]/5-7[16:1],,15,,3p7[16:1]/7p3[16:1],3-5[16:1]/7-1[16:1],,,
{16} 1,,2,,37,,4,,7/4-7[16:1],63,52,,1,,3,,
2,,2/5-2[16:1],36,47,,8V62[16:1],,8,,2-5[16:1],,2,,,,
37,,3V57[8:1]/7V13[8:1],26,15,48,37,,,,1^3[16:1]/5^7[16:1],,37,,15,,

{8} 2-8[16:1]/6-4[16:1],,26,,8q5[16:1]/4q1[16:1],84,,,
{16} 18,,3,2,1/8-4[16:1],,7,,1-5[16:1]/8,,3,,18,7,6,,
{8} 4-6[16:1]/8-2[16:1],,48,,2p6[16:1]/6p2[16:1],2^8[16:1]/6^4[16:1],,,
{16} 8,,15,,26,37,48,15,2v5[16:1]/6v1[16:1],,84,,26,,,,
{8} 1-3[16:1]/5-7[16:1],,15,,3p7[16:1]/7p3[16:1],3^5[16:1]/7^1[16:1],,,
{16} 1,,2,,37,,4,,7/4v7[16:1],63,52,,1,,3,,
2,,2/5v2[16:1],36,47,,8V62[16:1],,8,,2v5[16:1],,2,,,,
37,,3V58[8:1]/7V14[8:1],26,15,48,37,,,,1^4[16:1]/5^8[16:1],,37,,15,,

{8} 2-8[16:1]/6-4[16:1],,26,,8q6[16:1]/4q2[16:1],84,,,
{16} 18,,3,2,1/8q4[16:1],,7,,1p5[16:1]/8,,3,,18,7,6,,
{8} 4-6[16:1]/8-2[16:1],,48,,2-7[16:1]/6-3[16:1],2^8[16:1]/6^4[16:1],,,
{16} 8,,15,,26,37,48,15,2v4[16:1]/6v8[16:1],,84,,26,,,,
{8} 1-3[16:1]/5-7[16:1],,15,,3-8[16:1]/7-4[16:1],3^5[16:1]/7^1[16:1],,,
{16} 1,,2,,37,,4,,7/4pp6[16:1],63,52,,1,,3,,
2,,2/5qq3[16:1],36,47,,8V62[16:1],,8,,2pp4[16:1],,2,,,,
37,,3V58[8:1]/7V14[8:1],26,15,48,37,,,,1v4[16:1]/5v8[16:1],,37,,15,,

{8} 2-8[16:1]/6-4[16:1],,26,,8q4[16:1]/4q8[16:1],84,,,
{16} 18,,3,2,1/8-3[16:1],,7,,1-6[16:1]/8,,3,,18,7,6,,
{8} 4-6[16:1]/8-2[16:1],,48,,2p6[16:1]/6p2[16:1],2-7[16:1]/6-3[16:1],,,
{16} 8,,15,,26,37,48,15,2v4[16:1]/6v8[16:1],,84,,26,,,,
{8} 1-3[16:1]/5-7[16:1],,15,,3p7[16:1]/7p3[16:1],3-6[16:1]/7-2[16:1],,,
{16} 1,,2,,37,,4,,7/4-2[16:1],63,5/2-5[16:1],,1,,3,,
2,,2/5-7[16:1],36,4/7-4[16:1],,8V62[16:1],,8,,2-7[16:1],,2,,,,
37,,3V52[8:1]/7V16[8:1],26,15,48,37,,,,1bp4[16:1]/5bp8[16:1],,3b/7b,,1b/5b,,

(400)
{1} 8bw4[16:1],

E


名前:
コメント:

タグ:

+ タグ編集
  • タグ:

このサイトはreCAPTCHAによって保護されており、Googleの プライバシーポリシー利用規約 が適用されます。

最終更新:2016年10月17日 21:02