Our Wrenally

BPM EASY BASIC ADVANCED EXPERT MASTER
105 4 6 9 12 14+

EASY


BASIC

(105){1}1h[4:7],,
{1}7h[4:7]/8h[4:7],,
{4}1,1,2,2,
{4}3,3,4,4-1[2:1]/5-8[2:1],{1},
{4}8,8,7,7,
{4}6,6,4h[4:1]/5h[4:1],,
{4}3h[4:1]/6h[4:1],,2,2,
{4}1,1,1/8,,
{4}1,1,2/8,2/8,
{4}8,8,1/7,1/7,
{4}2/8,2/8,1/7,1/7,
{4}1/8,1/8,2/7,,
{4}3h[4:1],,3/4,3/4,
{4}6h[4:1],,5/6,5/6,
{4}3h[4:1],,2/4,2/4,
{4}6h[4:1],,5/7,5b/7b,
{2}3h[4:1]/4h[4:1],3h[4:1]/4h[4:1],
{4}3/4,5/6,7h[4:1]/8h[4:1],,
{2}5h[4:1]/6h[4:1],5h[4:1]/6h[4:1],
{4}5/6,3/4,1/2,7b/8b,
{8}7,7,7,,8,8,8,,
{8}1,1,1,,2,1,2,,
{8}3,3,3,,4,4,4,,
{4}5h[2:1]/6h[2:1],,,4b/7b,
{4}3,3,2,2,
{4}1,1,8,1/7,
{4}6,6,7,7,
{4}8,8,1,2/8,
{2}3h[4:1],4h[4:1]/6h[4:1],
{4}7,7,8,1/7,
{2}6h[4:1],3h[4:1]/5h[4:1],
{4}2,2,1,2b/8b,
{8}7h[4:1]/8h[4:1],,,,6,5,6,,
{8}5h[4:1]/6h[4:1],,,,4,5,4,,
{8}3h[4:1]/4h[4:1],,,,2,1,{4}2-5[2:1],{1},
{2}5/6,3/4,
{4}5/6,4/5,3h[4:1]/4h[4:1],,
{8}3,3,3,,2,2,2,,
{8}1,1,1,,8,8,1b/8b,,
{8}7,7,7,,6,6,6,,
{8}5,5,4,4,5,5,4/5,,
{8}3,3,3,,2,2,2,,
{8}1,1,8,8,1,1,1/8,,
{2}1h[4:1]/7h[4:1],2h[4:1]/8h[4:1],
{8}7,7,6,6,5,4,5,,
{2}3h[4:1]/5h[4:1],4h[4:1]/6h[4:1],
{8}3,3,2,2,1,8,1,,
{4}3/4,3/4,1/2,1/2,
{4}5/6,5/6,7/8,7/8,
{8}1,1,2,2,3,3,4,4,
{8}5,5,6,6,7,7,8,8,
{2}1-5[4:5],{1},,
E

ADVANCED

(105){1}1h[1:1],
{8}8,7,6,5,4,3,2,1,
{4}8h[4:1],6,1h[4:1],3,
{4}7h[4:1],5,2h[4:1],4,
{8}6h[4:1],5,5,,3h[4:1],4,4,,
{8}5h[8:7],4,3,2,1,8,7,6,
{1}4qq1[2:1]/5pp8[2:1],
{16}3,3,4,,2/5,,3/4,,6,6,5,,4/7,,5/6,,
{16}3,3,4,,2/5,,3/4,,7h[8:1]/8h[8:1],,,,3>6[4:1]/4p5[4:1],,,,
{16},,,,,,,,7,7,8,,1/6,,1/6,,
{16}2,2,1,,3/8,,3/8,,2b/7b,,,,,,,,
{8}2-4[8:1],,5-7[8:1],,1,1,2/8,,
{8}7-5[8:1],,4-2[8:1],,8,8,1/7,,
{8}4/5,3,4/5,6,4/5,2,4/5,7,
{16}4/5,,1,,4/5,,8,,4,4,5,5,4,,3b,,
{2}2^5[8:1],6^1[8:1],
{4}2-4[8:1],8-6[8:1],1-5[8:1],,
{2}7^4[8:1],3^8[8:1],
{4}7-5[8:1],1-3[8:1],8-4[8:1],,
{8}3/5,3,3,3,3/6,3,3,3,
{8}3/7,3,3/5,3,3/6,3,3/4,,
{8}4/6,6,6,6,3/6,6,6,6,
{8}2/6,6,4/6,6,3/6,6,5/6,2b/8b,
{8}1,2/8,1,3/7,1,4/6,1,5b,
{16}8,,1/7,,8,,2/6,,8,,3/5,,8,8,1,1,
{8}8,2/6,5,3/7,4,2/6,1,3/7,
{16}5,5,4,4,5,5,4,,2b/7b,,,,4/5,,1b/8b,,
{8}2,3/8,7,1/6,2,1-5[8:1],8,,
{8}7,1/6,2,3/8,7,1/5,2,4/8,
{8}7,6,5s1[4:1],4,,,,,
{8}7,7/8,2,1/2,7/8,5/6,3/4,1/2,
{8}7,1/6,2,3/8,7,8-4[8:1],1,,
{8}2,3/8,7,1/6,2,4/8,7,1/5,
{8}2,3,4z8[4:1],5,,,,,
{8}7,7/8,2,1/2,3/4,5/6,7/8,1b/2b,
{8}3h[4:1],4,6h[4:1],5,2h[4:1],4,7h[4:1],5,
{8}1h[4:1],3,8h[4:1],6,2h[4:1],3,7h[4:1],6,
{8}2h[4:1],1,7h[4:1],8,3h[4:1],1,6h[4:1],8,
{8}4h[4:1],1,5h[4:1],8,4b,,,,
{2}3,5,
{4}7,6,5,,
{2}6,4,
{8}2,,3,,4,,5,1b/5b,
{8}2,1/3,7,6/8,2,1-5[8:1],8,,
{8}6,5/7,3,2/4,6,5/8,3,1/4,
{8}7,1,3>6[4:1],5,,,,1b/8b,
{8}3,4,5,6,7/8,1/2,3/4,5/6,
{8}7,6/8,2,1/3,7,8-4[8:1],1,,
{8}3,2/4,6,5/7,3,1/4,6,5/8,
{8}2,8,6<3[4:1],4,,,,1b/8b,
{8}6,5,4,3,1/2,3/8,1/6,7/8,
{8}1/3,1/3,5q4[4:1]/6<3[4:1],5/6,,,,,
{8}6/8,6/8,3>6[4:1]/4p5[4:1],3/4,,,,,
{8}4/5,2/4,4/5,5/7,4/5,1/3,4/5,6/8,
{16}4/5,,1/2,,4/5,,7/8,,1,1,1,1,1pp6[2:3],,{8}8b,,,,,{1},,
E

EXPERT

(105)
{2}2-6[4:1],7-3[4:1],
{16}1,1,2,2,3,3,4,4,5,5,6,6,7,7,8,8,
{2}7-3[4:1],2-6[4:1],
{16}8,8,7,7,6,6,5,5,4,4,3,3,2,2,1,1,
{2}1-6[4:1],8-3[4:1],
{16}1,1,1,1,1,1,1,1,1,2,3,4,5,6,7,8,8,8,8,8,8,8,8,8,
{2}1b/8b,

{8}45,4-8[8:1]/5,,5-1[8:1],,4v7[8:1],,5v2[8:1],
,4-8[8:1],,5,{16}5,6,7,8,1,2,3,4,{2}5-1[8:1],
{8}34,2/5-1[8:1],,4-8[8:1],,3-7[8:1],,2,
{16}2,1,8,7,6,5,4,3,
1h[4:1],,2h[8:1],,,38,38,,5-2[8:1]/6,,8,8,,,4,,
8h[4:1],,7h[8:1],,,61,61,,4-7[8:1]/3,,1,1,,,5,,
{8}4h[16:1]/5h[16:1],3h[16:1]/4h[16:1],4h[16:1]/5h[16:1],6h[16:1]/5h[16:1],
4h[16:1]/5h[16:1],2h[16:1]/4h[16:1],4h[16:1]/5h[16:1],7h[16:1]/5h[16:1],
4h[16:1]/5h[16:1],1h[16:1]/3h[16:1],4h[16:1]/5h[16:1],6h[16:1]/8h[16:1],
45,13,68,4b,

{4}1h[4:1]/2h[4:3],,3h[8:5],,6h[8:3],5h[4:1],8-4[8:1],,
8h[4:1]/7h[4:3],,6h[8:5],,3h[8:3],4h[4:1],1-5[8:1],,
{16}3h[4:1],,,,2,3,14,,6h[4:1],,,,7,6,58,,
3h[16:3],,,4,{8}52,61,78,12,36,,
{16}8h[4:1],,,,7,8,16,,1h[4:1],,,,2,1,38,,
6,,3,4,,25,,47,,1,8,1,8,,27,,

{8}3h[16:1]/5h[16:1],3h[16:1]/1h[16:1],
3h[16:1]/5h[16:1],7h[16:1]/5h[16:1],
3h[16:1]/5h[16:1],3h[16:1]/1h[16:1],
3h[16:1]/5h[16:1],8b,
6h[16:1]/4h[16:1],6h[16:1]/8h[16:1],
6h[16:1]/4h[16:1],2h[16:1]/4h[16:1],
6h[16:1]/4h[16:1],6h[16:1]/8h[16:1],
6h[16:1]/4h[16:1],{16}1,1,
{8}3h[16:1]/5h[16:1],1h[16:1]/3h[16:1],4h[16:1]/6h[16:1],6h[16:1]/8h[16:1],
2h[16:1]/5h[16:1],1h[16:1]/3h[16:1],4h[16:1]/7h[16:1],6h[16:1]/8h[16:1],
3h[16:1]/4h[16:1],3h[16:1]/8h[16:1],5h[16:1]/6h[16:1],1h[16:1]/6h[16:1],
1b/8b,,27,,

{16}
3h[8:1],,4,1,6h[8:1],,5,8,3h[8:1],,4,1,23,,58,,
6h[8:1],,5,8,3h[8:1],,4,1,6h[8:1],,5,8,67,,14,,
3h[8:1],,1,8,27,,36,,{24}5,5,5,4,4,4,{16}6,,27,,
6h[8:1],,1,8,3,34,45,56,,27,,18,18,,27,,
6h[8:1],,5,1,3h[8:1],,4,8,6h[8:1],,5,8,76,,41,,
3h[8:1],,4,8,6h[8:1],,5,1,3h[8:1],,4,1,32,,85,,
6h[8:1],,8,1,72,,63,,{24}4,4,4,5,5,5,{16}3,,72,,
3h[8:1],,8,1,6,65,54,43,,72,,81,81,,27,,

{8}54,5-1[8:1]/4,,4-8[8:1],,5v2[8:1],,4v7[8:1],
,5-1[8:1],,4-8[8:1],,5,,34,
{8}65,7/4-8[8:1],,5-1[8:1],,6-2[8:1],,7-3[8:1],
,8-4[8:1],,1,{16}1,2,3,4,5,6,7,8,
{4}1h[4:1],2,8h[4:1],7,{8}4h[4:1],,5,36,27,1,1,,
{2}2-4[8:1]/6-1[8:1],7-5[8:1]/3-8[8:1],
{4}1>4[16:1],5<8[16:1],1-5[16:1],{8}8,2b/7b,

{16}12,,4/7h[8:1],,6,5,6,7,86,,2h[8:1]/5,,3,4,3,2,
{8}13,57,1V37[8:1]/2V46[8:1],78,,,18,27,
{16}35,,4/7h[8:1],,6,7,6,5,46,,2h[8:1]/5,,3,2,3,4,
35,,45,45,,13,,68,,4,5,4,5,,27,,
87,,5/2h[8:1],,3,2,3,4,35,,7h[8:1]/4,,6,7,6,5,
{8}46,52,8V62[8:1]/7V53[8:1],12,,,18,27,
{16}24,,8/4h[8:1],,3,4,3,2,13,,5h[8:1]/1,,6,5,6,7,
68,,45,45,,68,,13,,5,4,5,4,,27,,

3/8h[4:1],,7h[8:1],,,16,16,,3/4-8[8:1],,3,3,,7,,,
6/1h[4:1],,2h[8:1],,,83,83,,6/5-1[8:1],,6,6,,2,,,
{8}
1h[16:1]/8h[16:1],7h[16:1]/8h[16:1],1h[16:1]/8h[16:1],1h[16:1]/2h[16:1],
1h[16:1]/8h[16:1],6h[16:1]/8h[16:1],1h[16:1]/8h[16:1],1h[16:1]/3h[16:1],
1h[16:1]/8h[16:1],5h[16:1]/7h[16:1],1h[16:1]/8h[16:1],2h[16:1]/4h[16:1],
18,57,24,8b,
{16}4>5[4:5],,,,5,,,,,5,,,,,5,,

{1},,
E

MASTER

{1}8h[1:2],{16},7,7,7,7,7,7,7,6,6,5,5,4,4,{32}5,4,3,2,{4}1^4[8:1],8,8^5[8:1],1,
{16}1h[1:1],2,2,2,2,2,2,2,3,3,4,4,5,5,{32}4,5,6,7,{4}8^5[8:1],1,1^4[8:1],8,
{16}8h[1:1],7,7,7,7,7,7,7,6,6,5,5,4,4,{32}5,4,3,2,{16}1,1,8,8,{32}1q8[4:1],8,1,8,1,8,1,8,
{2}1h[4:1],
{32}2v4[8:1]/6,,4,4,4p8[16:1],,{16}35,26,,7,7,6h[8:1],,5,4,3,4,5,6,
{8}4V26[8:1]/5V73[8:1],3-1[16:1]/6-8[16:1],,,{16}36,4,36,5,4s8[4:1]/5z1[4:1],{32}4,5,{16}4,36,45,,,,,,
{8}2/7-5[16:1],4,{16}4/7-1[16:1],3,2,3,47,3,4,5,6,7,8z4[4:1],1,2,3,{8}48,,,34,
{32}16,2,3,4,{16}5,5,7-4[16:1],4-8[16:1],8-3[16:1],3>6[8:1],7,,,,,,{8}27,
{32}38,7,6,5,{16}4,4,2-5[16:1],5-1[16:1],1-6[16:1],6<3[8:1],2,,,,,,{8}27,
{16}45,3,45,6,45,3,45,6,35,2,46,7,35,2,46,7,25,1,47,8,25,1,47,8,{32}35,,4,4,4-8[16:1],,35,,26,,,,,,,,
{4}6h[2:1],5,{8}3h[2:1],4,{4}4,7h[2:1],6,{8}4h[2:1],5,{4}5,5h[2:1],4,{8}2h[2:1],3,3,,
{16}8h[2:1],7,7,7,7p2[4:1],7,7,7,7,,,,,,1,8,
{4}7h[2:1],8,2h[2:1],1,{16}7<3[4:1],,,2,{8}3q8[4:1],1,1h[4:1],,,{16}8,1,
{8}2h[2:1],3,4,5,7h[2:1],6,5,4,{16}3,3,6,6,4,4,5,5,,45,4-1[16:1]/5-8[16:1],36,45,,45,,
{32}
3,4,3,,3,2,3,,3,5,3,,3,1,3,,3,6,3,,3-1[16:1],8,3,,3,7,3,,3b,,,,
6,5,6,,6,7,6,,6,4,6,,6,8,6,,6,3,6,,6,1,6,,6,2,6,,45,,36,,
4,5,4,,4,6,4,,4,7,4,,4,8,4,,5,4,5,,5,3,5,,5,2,5,,5,1,5,,
4,5,3,6,2,7,1,8,1,8,2,7,3,6,4,,{4}4-1[16:1]/5-8[16:1],{8}45,3b/6b,

{32}25,,3,4,3,,2,,47,,6,5,6,,7,,2/5V73[8:1],,3,4,{16}3-8[16:1],2,4,,1b,,
4-1[16:1]/5,,35,35,4/6-8[16:1],6,{32}6,5,7-4[16:1],5,{16}6,,3-8[16:1],3,,6,6,,
{32}47,,6,5,6,,7,,25,,3,4,3,,2,,{24}56,7,4,5-2[16:1]/6-1[16:1],7,4,{16}56,,56,,57,,34,25,16,{32}7,8,7,,
2,1,{16}2,38,4-8[16:1]/7-5[16:1],38,47,,47,,
{32}47,,6,5,6,,7,,25,,3,4,3,,2,,4V26[8:1]/7,,6,5,{16}6-1[16:1],7,5,,8b,,
4/5-8[16:1],,46,46,3-1[16:1]/5,3,{32}3,4,2-5[16:1],4,{16}3,,6-1[16:1],6,,3,3,3,
{32}25,,3,4,3,,2,,47,,6,5,6,,7,,{24}34,2,5,3-8[16:1]/4-7[16:1],2,5,{16}34,,34,,24,,56,47,38,{32}2,1,2,,
7,8,7,,{16}16,2-4[16:1]/5-1[16:1],16,25,,25,,
{32}3/7v5[8:1],,5,5,5q1[16:1],,{16}46,37,,
2-4[16:1],2,25,,2-8[16:1]/5,6,7,6,2-4[16:1]/5,6,7h[8:1],,2-8[16:1],,7,7,2-4[16:1]/6,7,5,,2-8[16:1]/5,6,7,6,25,,
{32}2v4[8:1]/6,,4,4,4p8[16:1],,{16}35,26,,7-5[16:1],7,47,,4/7-1[16:1],3,2,3,47,3,4,5,6,7,8z4[4:1],1,2,3,{2}48,

{4}4h[2:1],3,5h[2:1],6,3h[4:1],1h[4:1],{8}7v2[8:1],8,8,,
5,5,{16}46,,,4,,4,,,3/5h[16:7],,,,,6,6,6,6,5,4,3,4-1[16:1]/5-8[16:1],6,3,6,45,,3b/6b,,

{32}16,,7,8,7,,16,,38,,2,1,2,,38,,2/5V73[8:1],,3,4,{16}3-8[16:1],16,45,,1b,,
3/5-8[16:1],,57,46,3-1[16:1]/5,3,{32}3,4,2-5[16:1],4,{16}3,,6-1[16:1],26,,2,26,,
{32}38,,2,1,2,,38,,16,,7,8,7,,16,,{24}34,5,5,3-8[16:1]/4-7[16:1],2,2,{16}34,,34,,
25,,56,47,38,{32}2,1,2,,7,8,7,,{16}16,2-4[16:1]/5-1[16:1],78,25,,25,,
{32}38,,2,1,2,,38,,16,,7,8,7,,16,,4V26[8:1]/7,,6,5,{16}6-1[16:1],38,45,,8b,,
4-1[16:1]/6,,24,35,4/6-8[16:1],6,{32}6,5,7-4[16:1],5,{16}6,,3-8[16:1],37,,7,37,7,
{32}16,,7,8,7,,6,,38,,2,1,2,,3,,{24}56,7,7,5-2[16:1]/6-1[16:1],4,4,{16}56,,56,,
47,,34,25,16,{32}7,8,7,,2,1,2,,{16}38,4-8[16:1]/7-5[16:1],12,47,,47,,

{32}16,2,3,4,{16}5,5,7-3[16:1],3-8[16:1],8-4[16:1],4>6[8:1],7,,,,,,{8}38,
{32}38,7,6,5,{16}4,4,2-6[16:1],6-1[16:1],1-5[16:1],5<3[8:1],2,,,,,,{8}16,
{16}18,2,18,7,18,2,18,7,28,3,17,6,28,3,17,6,38,4,16,5,38,4,16,5,
46,{32}5,5,{16}5-1[16:1],46,3s7[4:7]/7,,,,4,,,,8,,,,,4,,,,,8,,{4},,,,E

タグ:

+ タグ編集
  • タグ:

このサイトはreCAPTCHAによって保護されており、Googleの プライバシーポリシー利用規約 が適用されます。

最終更新:2022年05月06日 04:02