Natural Flow

BPM EASY BASIC ADVANCED EXPERT MASTER
100 2 3 7 8 9

EASY


BASIC


ADVANCED


EXPERT

(100){1}
,
{16}
7,,,,2,,,8,,8,,1b,,,,,

{4}
6h[4:7],3,2,1,
{2}
8h[4:1],7h[4:3],
8h[4:3],1h[4:3],
{8}
2,,2,,,8,1,,
{4}
3h[4:7],6,7,8,
{2}
1h[4:1],2h[4:3],
1h[4:3],8h[4:3],
{8}
7,,7,,,6,6,,

1,1,2h[2:1],,8,8,7h[2:1],,
8,1,2h[2:1],,1,8,7h[2:1],,
2,3,1h[2:1],,7,6,8h[4:1],,
1h[1:1],,5,,5,,5,5,
4h[2:1],3,3,,5h[2:1],6,6,,
3h[4:1],4,4h[4:1],5,5h[4:1],6,6,,
5/6h[8:1],5h[8:1],6,,4/3h[8:1],4h[8:1],3,,
{1}
1-4[2:1]/2-7[2:1],

{16}
8h[8:1],,,8,7h[8:1],,,7,6h[8:1],,,6,5h[8:1],,,5,
3h[8:1],,,3,4h[8:1],,,4,5h[8:1],,,5,6h[8:1],,,6,
1h[8:1],,,1,2h[8:1],,,2,3h[8:1],,,3,4h[8:1],,,4,
6h[8:1],,,6,5h[8:1],,,5,4h[8:1],,,4,3h[8:1],,,7,
7h[8:1],,,8,8h[8:1],,,1,1h[8:1],,,2,2h[8:1],,,5,
5h[8:1],,,6,6h[8:1],,,7,7h[8:1],,,8,8h[8:1],,,2,
2h[8:1],,,1,1h[8:1],,,8,8h[8:1],,,7,7h[8:1],,,4,
{8}
4h[4:1],,5,5h[4:1],,2,2^7[2:7],,

{1}
,
,
,
{8}
,,,,,1b/8b,1b/8b,,
{4}
3h[2:1],,8^3[4:1],3^6[4:1],
{1}
,
{4}
6h[2:1],,1^6[4:1],6^3[4:1],
{8}
,,,,,6,6,,

1-6[8:1],6-2[8:1],2-5[8:1],,,,,,
{4}
,7,,7,
{8}
7-3[8:1],3^6[8:1],6-2[8:1],,,,,,
{4}
,8,,8,
{8}
8^5[8:1],5-1[8:1],1^4[8:1],,,,,,
{4}
,3,,3,
{8}
3-6[8:1],6-1[8:1],1-4[8:1],,,,,,
2-7[8:3],,,7^2[8:3],,,,,

{1}
,
,
E

MASTER

(100){8}
6-2[4:1],,,8,,4-8[4:1],,,
1h[4:3],,,,{16},7,,5h[16:5],{8},1b,
3-8[4:1],,,2h[8:3],,3,4,,
2^5[4:1],1,,2h[8:3],,1,8b,,
7-4[4:1],,,1-5[4:1],,,8b,,
47,,35,,,68,17,,
{4}
2^5[4:1],,2h[2:1],1^6[4:1],
,1^4[4:1],,8-4[2:1],
,1-5[2:1],,2-6[2:1],
,8,{8},1,1b,,

{16}
7h[2:1],,,,6,,,,1,,,2,,,3,,
3h[4:1],,4,,2h[4:1],,,,1,,,8,,,7,,
7h[4:1],,5,,3h[4:1],,,,1,,,8h[16:3],,,6,,
{8}
27,,,2b/8b,46,,3b/7b,,
{2}
1-5[2:1],1^6[2:1],
8^3[2:1],4-8[2:1],
{8}
6-2[2:1],6,,,8-4[2:1],8,,,
2h[4:1],,,2h[4:1]/7h[4:1],,,3-8[4:1]/8b,,

{16}
1h[8:5],,,,7,,,6,,,5^8[4:1],,3,,1b,,
{2}1-5[2:1],7-4[2:1],
1h[2:1],{16}8,,,7,,,6b,,
{2}5-1[2:1],3-8[2:1],
7h[2:1],{16}6,,,7,,,8b,,
{2}1-5[2:1],7-4[2:1],
2h[2:1],7h[2:1],
{8}1,,68,2b/7b,,,6b/8b,,

1-6[4:1],,,8-4[4:1],,,2h[4:1],,
8-3[4:1],,,1-5[4:1],,,7h[4:1],,
6-1[4:1],,,8-4[4:1],,,1h[4:1],,
4^7[4:1],,2,2,,8,8b,,
{4}
2^5[4:1],,2h[2:1],1^6[4:1],
,1^4[4:1],,8-4[2:1],
,1-5[2:1],,2-6[2:1],
,8b,{8},1,3-8[4:1]/8b,,

{16}
1h[8:5],,,,7,,,6,,,5^8[4:1],,3,,1b,,
{2}1-5[2:1],7-4[2:1],
1h[2:1],{16}8,,,7,,,6b,,
{2}5-1[2:1],3-8[2:1],
7h[2:1],{16}6,,,7,,,8b,,
{2}1-5[2:1],7-4[2:1],
2h[2:1],7h[2:1],
{8}1,,68,1b/8b,,,2b/7b,,
{1},
E

名前:
コメント:

タグ:

+ タグ編集
  • タグ:

このサイトはreCAPTCHAによって保護されており、Googleの プライバシーポリシー利用規約 が適用されます。

最終更新:2013年08月22日 23:51