最終鬼畜妹・一部声

BPM EASY BASIC ADVANCED EXPERT MASTER Re:MASTER
200 3 6 7 12 13+ -

EXPERT MASTER Re:MASTER
譜面制作者 はっぴー rioN -

EASY


BASIC

(200.0){1},,,,,,,,,
{2}1,1,
{2}2,2,
{2}3,3,
{2}4,4,
{2}5,5,
{2}6,6,
{2}7,7,
{1}1/8,
{2}8,8,
{2}7,7,
{2}6,6,
{2}5,5,
{2}4,4,
{2}3,3,
{2}2,2,
{1}1/8,
{2}2,3,
{2}4,5,
{2}6,7,
{1}1/8,
{2}7,6,
{2}5,4,
{2}3,2,
{1}1/8,
{2}1,1,
{4}2,2,2,,
{2}3,3,
{4}4,4,4,,
{2}5,5,
{4}6,6,6,,
{2}7,7,
{1}1b/8b,
{2}8,8,
{4}7,7,7,,
{2}6,6,
{4}5,5,5,,
{2}4,4,
{4}3,3,3,,
{2}2,2,
{1}1b/8b,
{1}8h[2:1],
{2}7,7,
{1}6h[2:1],
{2}5,5,
{1}4h[2:1],
{2}3,3,
{1}2h[2:1],
{2}1,1,
{2}1,2,
{2}3,4,
{2}5,6,
{2}7,1/8,
{2}8,7,
{2}6,5,
{2}4,3,
{2}2,1/8,
{2}2,4,
{2}6,8,
{2}2,4,
{2}6,1/8,
{2}7,5,
{2}3,1,
{2}7,5,
{2}3,1/8,
{4}1,1,2,2,
{2}1/2,1/2,
{4}3,3,4,4,
{2}3/4,3/4,
{4}5,5,6,6,
{2}5/6,5/6,
{4}7,7,8,8,
{1}1b/8b,
{4}8,8,7,7,
{2}7/8,7/8,
{4}6,6,5,5,
{2}5/6,5/6,
{4}4,4,3,3,
{2}3/4,3/4,
{4}2,2,1,1,
{1}1b/8b,
{4}2,2,3,3,
{4}4,4,5,5,
{4}6,6,7,7,
{4}1b/8b,1b/8b,1b/8b,,
{4}7,7,6,6,
{4}5,5,4,4,
{4}3,3,2,2,
{1}1b/8b,
{1}2-6[4:3],,
{1}7-3[4:3],,
{1}1-5[4:3],,
{1}8-4[4:3],,
E

ADVANCED

(200.0){1},
{1}1h[4:7]/2h[4:7],,
{1}7h[4:7]/8h[4:7],,
{1}1h[4:3]/8h[4:3],
{1}1h[4:3]/8h[4:3],
{1}2h[2:1]/7h[2:1],
{4}1,1,8,8b,
{4}3/4,3,4,3,
{4}5/6,6,5,6,
{4}3/4,3,4,5,
{4}6,5,4/7,,
{4}5/6,6,5,6,
{4}3/4,3,4,3,
{4}5/6,6,5,4,
{4}3,4,2/5,,
{4}3/4,3,5/6,6,
{4}3,4,5,6,
{4}5/6,6,3/4,3,
{4}6,5,3/4,,
{4}5/6,6,3/4,3,
{4}6,5,4,3,
{4}3/4,3,5/6,6,
{4}3,4,5b/6b,,
{4}3/4,4/5,3/4,4/5,
{4}4,3,2,1,
{4}1/2,1/8,1/2,1/8,
{4}8,7,5/6,,
{4}5/6,4/5,5/6,4/5,
{4}5,6,7,8,
{4}7/8,1/8,7/8,1/8,
{4}1,2,3b/4b,,
{2}1-4[4:1],8-5[4:1],
{4}4,4,2/7,2/7,
{4}3/4,5/6,3/4,5/6,
{4}1/8,2/7,3b/6b,,
{2}5-8[4:1],4-1[4:1],
{4}8,8,3/6,3/6,
{4}5/6,3/4,5/6,3/4,
{1}4^1[8:3]/5^8[8:3],
{2}1^3[16:3],5^7[16:3],
{4}4,4,2/6,2/6,
{4}1/2,7/8,1/2,7/8,
{4}3/6,2/7,1b/8b,,
{2}8^6[16:3],4^2[16:3],
{4}5,5,3/7,3/7,
{4}7/8,1/2,7/8,1/2,
{1}7p3[2:1]/8p3[2:1],
{1}1h[4:3],
{1}2h[4:3]/8h[4:3],
{1}8h[4:3],
{1}1h[4:3]/7h[4:3],
{1}4h[4:3],
{1}3h[4:3]/5h[4:3],
{1}5h[4:3],
{8}4/6,,,3/5,,,3b/6b,,
{4}1/2,1/2,5/6,5/6,
{4}1/2,1/2,5/6,5/6,
{4}7/8,7/8,3/4,3/4,
{4}7/8,7/8,3b/4b,,
{4}3/4,3/4,6/7,6/7,
{4}5/6,5/6,2/3,2/3,
{4}3/4,6/7,5/6,2/3,
{4}3/4,5/6,2/7,,
{4}3/4,2/5,3/4,2/5,
{4}2/4,2/4,5/7,5/7,
{4}5/6,4/7,5/6,4/7,
{4}5/7,5/7,4/8,,
{4}4/8,4/8,2/6,2/6,
{4}4/8,3/7,2/6,1/5,
{4}1/5,1/5,3/7,3/7,
{4}1/5,2/6,3b/7b,,
{2}1-3[16:3],8-4[4:1],
{4}1,1,2/8,3/7,
{2}8-6[16:3],1-5[4:1],
{4}8,8,3/6,,
{2}4-2[16:3],5-1[4:1],
{4}4,4,3/5,2/6,
{2}5-7[16:3],4-8[4:1],
{4}5,5,2b/7b,,
{2}2^4[16:3],7^5[16:3],
{2}1^3[16:3],8^6[16:3],
{4}4,5,4,5,
{4}3/6,2/7,1/8,,
{2}3^1[16:3],6^8[16:3],
{2}4^2[16:3],5^7[16:3],
{4}1,8,1,8,
{4}1/8,2/7,3b/6b,,
{2}1v3[4:1],8v6[4:1],
{2}2v4[4:1],7v5[4:1],
{4}4,5,2,7,
{4}3/4,1/2,7/8,5/6,
{2}4v2[4:1],5v7[4:1],
{2}3v1[4:1],6v8[4:1],
{4}1,8,3,6,
{4}3/4,5/6,1b/8b,,
{4}1h[8:3],,,1,
{8}2h[8:3],,,3h[8:3],,,4,,
{4}8h[8:3],,,8,
{8}7h[8:3],,,6h[8:3],,,5,,
{4}4h[8:3],,,4,
{8}3h[8:3],,,4h[8:3],,,5,,
{4}5h[8:3],,,5,
{8}6h[8:3],,,5h[8:3],,,{4}4>5[1:3],{1},,,,
E

EXPERT

(200.0){1},
{1}4h[2:3]/5h[2:3],
{4},,,4/5,
{1}6h[2:3]/8h[2:3],
{4},,,6/8,
{1}1h[2:1]/3h[2:1],
{1}5h[2:1]/7h[2:1],
{1}2h[2:1]/4h[2:1],
{8}6,6,3,3,5,5,4,,
{4}5/6,5/6,3/4,3/4,
{4}5/6,5/6,3/4,3/4,
{4}5/6,5/6,3/4,3/4,
{4}1/2,3/4,5/6,,
{4}3/4,3/4,5/6,5/6,
{4}3/4,3/4,5/6,5/6,
{4}3/4,3/4,5/6,5/6,
{4}7/8,5/6,3/4,,
{4}5/7,5/6,2/4,3/4,
{4}5/7,5/6,2/4,3/4,
{4}5/7,5/6,2/4,3/4,
{4}1/3,3/4,4/6,,
{4}2/4,3/4,5/7,5/6,
{4}2/4,3/4,5/7,5/6,
{4}2/4,3/4,5/7,5/6,
{4}6/8,5/6,3/5,,
{4}7/8,5/7,1/2,2/4,
{4}7/8,5/7,1/2,2/4,
{4}7/8,5/7,1/2,2/4,
{4}7/8,5/7,3/4,,
{4}1/2,2/4,7/8,5/7,
{4}1/2,2/4,7/8,5/7,
{4}1/2,2/4,7/8,5/7,
{4}1/2,2/4,5/6,1b,
{4}6/7h[4:1],6,3/2h[4:1],3,
{4}8/7h[4:1],8,1/2,3/8,
{4}5/6h[4:1],5,1/2h[4:1],1,
{8}7/8,7/8,1/6,1/6,2/5,,,,
{4}3/2h[4:1],3,6/7h[4:1],6,
{4}1/2h[4:1],1,7/8,1/6,
{4}4/3h[4:1],4,8/7h[4:1],8,
{1}1^6[8:3]/2^5[8:3],
{8}5/6,6,5/6,,3/4,3,3/4,,
{8}4/6,6,4/6,,3/4,3,3/4,,
{8}5/6,6,4/6,,3/4,3,3/5,,
{1}3q5[2:1],
{8}1/2,2,1/2,,7/8,7,7/8,,
{8}2/8,2,2/8,,1/7,7,1/7,,
{8}6,6,3,3,5,5,4,4,
{1}5<4[2:1],
{8}5h[4:1],,6,6h[4:1],,7,7,,
{8}1h[4:1],,2,2h[4:1],,3,3,,
{8}4h[4:1],,3,3h[4:1],,2,2,,
{8}8h[4:1],,7,7h[4:1],,6,6,,
{8}1h[4:1],,2,2h[4:1],,3,3,,
{8}5h[4:1],,6,6h[4:1],,7,7,,
{8}8h[4:1],,7,7h[4:1],,6,6,,
{8}1/8,,2/7,2/7,,3/6,3/6,,
{4}4/5h[2:1],6,4h[2:1],3,
{4}5h[2:1],6,4h[2:1],3,
{4}5h[2:1],7,4h[2:1],2,
{4}5h[2:1],7,4,,
{4}5/4h[2:1],3,5h[2:1],6,
{4}4h[2:1],2,5h[2:1],7,
{4}4h[2:1],1,5h[2:1],8,
{4}4h[2:1],1,5,2b/7b,
{4}1/8h[2:1],7,1h[2:1],2,
{4}8h[2:1],7,1h[2:1],2,
{4}8h[2:1],6,1h[2:1],3,
{4}8h[2:1],6,1,,
{4}8/1h[2:1],2,8h[2:1],7,
{4}1h[2:1],3,8h[2:1],6,
{4}1h[2:1],4,8h[2:1],5,
{4}1,1-4[4:1]/8-5[4:1],,,
{4}1/2h[4:1],3,8/7h[4:1],6,
{4}4/2h[4:1],1,7/8,1/6,
{4}4/3h[4:1],2,8/7h[4:1],6,
{8}1/2,1/2,3/8,3/8,4/7,,,,
{4}8/7h[4:1],6,1/2h[4:1],3,
{4}5/7h[4:1],8,1/2,3/8,
{4}5/6h[4:1],7,1/2h[4:1],3,
{1}7^4[8:3]/8^3[8:3],
{4}1/2,5/7,7/8,2/4,
{4}1/2,5/7,3/4,1/6,
{4}7/8,2/4,1/2,5/7,
{1}2^7[8:3]/4-7[8:3],
{4}7/8,2/4,1/2,5/7,
{4}7/8,2/4,5/6,3/8,
{4}1/2,5/7,7/8,2/4,
{1}5-2[8:3]/7^2[8:3],
{8}7/8,7,5/7,,1/2,2,2/4,,
{8}7/8,7,5/7,,1/2,2,2/4,,
{8}1/7,7,5/7,,2/8,2,2/4,,
{8}1/8,1/8,2/7,2/7,3/6,3/6,4/5,4/5,
{1}4h[4:7]/5<3[1:1],
{4},,,8b,
{8}1,1,8,8,2,2,7,7,
{1}1s5[2:1],
{8}5,5,4,5,5,6,5,4,
{8}5h[4:1],,6,6h[4:1],,7,7,,
{8}4,4,5,4,4,3,4,5,
{8}4h[4:1],,3,3h[4:1],,2,2,,
{8}8,8,1,8,8,7,8,1,
{8}8h[4:1],,7,7h[4:1],,6,6,,
{8}1,1,8,1,1,2,1,8,
{8}1-5[4:1],,,8-4[4:1],,,1h[8:47],,
{16},,,,,,,8<2[16:53],,,{1},,,,,,
E

MASTER

(200)

{4}1h[4:6]/8h[4:6],,,,,,,45,
2h[4:6]/4h[4:6],,,,,,,45,
7h[4:6]/5h[4:2],,,,2h[4:8],,,,
8,,8,,8z4[4:2],,,,


1>4[8:1]/5,7,1/5>2[8:1],7,1>4[8:1]/5,7,1/5>2[8:1],7,
1>4[8:1]/5,7,1/5>2[8:1],7,1>4[8:1]/5,7,15,,
8<5[8:1]/4,2,8/4<7[8:1],2,8<5[8:1]/4,2,8/4<7[8:1],2,
8<5[8:1]/4,2,8/4<7[8:1],2,8<5[8:1]/4,2,84,,

1-4[8:1]/5,7,1/5-2[8:1],7,1-4[8:1]/5,7,1/5-2[8:1],7,
1-4[8:1]/5,7,1/5-2[8:1],7,1-4[8:1]/5,7,15,,
8-5[8:1]/4,2,8/4-7[8:1],2,8-5[8:1]/4,2,8/4-7[8:1],2,
8-5[8:1]/4,2,8/4-7[8:1],2,8-5[8:1]/4,2,84,,

1-4[8:1]/5,71,1/5-2[8:1],75,1-4[8:1]/5,71,1/5-2[8:1],75,
1-4[8:1]/5,71,1/5-2[8:1],75,1-4[8:1]/5,71,15,,
8-5[8:1]/4,28,8/4-7[8:1],24,8-5[8:1]/4,28,8/4-7[8:1],24,
8-5[8:1]/4,28,8/4-7[8:1],24,8-5[8:1]/4,28,84,,


1^3[8:1]/5^7[8:1],,8^2[8:1]/4^6[8:1],,{8}8,7,1,6,{4}2-6[8:1],2b,
{8}8,2,7,3,6,{16}3,4,{8}3,6,{4}1<6[8:1],1>4[8:1],1b,,
8^6[8:1]/4^2[8:1],,1^7[8:1]/5^3[8:1],,{8}1,2,8,3,{4}7-3[8:1],7b,
{8}1,7,2,6,3,{16}6,5,{8}6,3,{4}8<1[4:2],,,,

7^1[8:1]/3^5[8:1],,6^8[8:1]/2^4[8:1],,{8}1,8,2,7,{4}3-7[8:1],3b,
{8}6,5,7,4,8,{16}2,1,{8}2,7,{4}1<6[8:1],1>4[8:1],1b,,
2^8[8:1]/6^4[8:1],,3^1[8:1]/7^5[8:1],,{8}8,1,7,2,{4}6-2[8:1],6b,
{8}3,4,2,5,1,{16}7,8,{8}7,2,{4}8<1[4:2],,,,


{8}2h[4:1],3,4,5h[4:1],4,3,2h[8:1],1,1h[4:1]/2h[4:1],,,1h[4:1]/8h[4:1],,,{4}78,
{8}7h[4:1],6,5,4h[4:1],5,6,7h[8:1],8,8h[4:1]/7h[4:1],,,8h[4:1]/1h[4:1],,,{4}21,
{8}8h[4:1]/7,6,5,4h[4:1]/3,2,1,87,6,5h[4:1]/1h[4:1],,,6h[4:1]/2h[4:1],,,{4}73,
{8}1h[4:1]/2,3,4,5h[4:1]/6,7,8,12,3,4h[4:1]/8h[4:1],,,3h[4:1]/7h[4:1],,,{4}26,


{8}1-4[8:1],7,1,8,5-2[8:1],7,5,6,1-4[8:1],7,1,8,5-2[8:1],7,5,6,
1-4[8:1],7,1,8,5-2[8:1],7,5,6,1-4[8:1],7,1,8,{4}5h[4:1],,
{8}8-5[8:1],2,8,1,4-7[8:1],2,4,3,8-5[8:1],2,8,1,4-7[8:1],2,4,3,
8-5[8:1],2,8,1,4-7[8:1],2,4,3,8-5[8:1],2,8,1,{4}4h[4:1],,

{8}1-6[8:1],7,1,2,5-8[8:1],7,5,4,1-6[8:1],7,1,2,5-8[8:1],7,5,4,
1-6[8:1],7,1,2,5-8[8:1],7,5,4,1-6[8:1],7,1,2,{4}5h[4:1],,
{8}8-3[8:1],2,8,7,4-1[8:1],2,4,5,8-3[8:1],2,8,7,4-1[8:1],2,4,5,
8-3[8:1],2,8,7,4-1[8:1],2,4,5,8-3[8:1],2,8,7,{4}4h[4:1],,


1^3[8:1]/5^7[8:1],15,8^2[8:1]/4^6[8:1],,{8}5,6,7,8,{4}1-4[8:1]/2-7[8:1],1b/2b,
{8}6,6,5,5,7,{16}3,4,{8}3,25,{4}4/8-4[8:1],8/1-5[8:1],1b/8b,,
8^6[8:1]/4^2[8:1],84,1^7[8:1]/5^3[8:1],,{8}4,3,2,1,{4}8-5[8:1]/7-2[8:1],8b/7b,
{8}3,3,4,4,2,{16}6,5,{8}6,74,{4}5<4[4:2],,,,

6^4[8:1]/2^8[8:1],62,7^5[8:1]/3^1[8:1],,{8}6,4,8,2,{4}4^6[8:1]/8^2[8:1],4b/8b,
{8}8,8,4,4,6,{16}8,1,{8}8,36,{4}1-5[8:1]/8-6[8:1],8-4[8:1]/1-3[8:1],1b/8b,,
3^5[8:1]/7^1[8:1],37,2^4[8:1]/6^8[8:1],,{8}3,5,1,7,{4}5^3[8:1]/1^7[8:1],5b/1b,
{8}1,1,5,5,3,{16}7,8,{8}6,37,{4}1>8[4:2],,,,

8>3[8:1]/4<7[8:1],84,8>3[8:1]/4<7[8:1],84,{8}15,15,37,37,{4}1-6[8:1]/5-2[8:1],1b/5b,
{8}37,37,51,51,37,{16}37,26,{8}15,37,1b/5b,1b/5b,2b/6b,2b/6b,3b/7b,3b/7b,4b/8b,4b/8b,
{4}1<6[8:1]/5>2[8:1],15,1<6[8:1]/5>2[8:1],15,{8}84,84,62,62,{4}8-3[8:1]/4-7[8:1],8b/4b,
{8}62,62,48,48,62,{16}62,73,{8}84,62,{4}1<6[4:2]/5>2[4:2],,,,

{8}1^3[8:1],8,7,6^8[8:1],5,4,3^5[8:1],2,1-4[8:1],,,7-4[8:1],,,{4}8b,
{8}8^6[8:1],1,2,3^1[8:1],4,5,6^4[8:1],7,8-5[8:1],,,2-5[8:1],,,{4}1b,
{8}2>5[8:1],1,8,7>2[8:1],6,5,4<7[8:1],3,2<7[8:1],,,4<7[8:1],,,{4}3b,
{8}7<4[8:1],8,1,2<7[8:1],3,4,5>2[8:1],6,7>2[8:1],,,5>2[8:1],,,{4}6<5[1:6],
,,,,
,,,,
,,,,
,,,,
,,,,
,,,1b,
,,,,
E

Re:MASTER


名前:
コメント:

タグ:

+ タグ編集
  • タグ:

このサイトはreCAPTCHAによって保護されており、Googleの プライバシーポリシー利用規約 が適用されます。

最終更新:2022年07月15日 15:38