|
EXPERT |
MASTER |
Re:MASTER |
譜面制作者 |
某S氏 |
rioN |
- |
EASY
BASIC
(135.0){1}1,,
{1}1,,
{2}1,1,
{1}1h[2:1],
{2}2,2,
{1}2h[2:1],
{2}3,3,
{1}3h[2:1],
{2}4,4,
{1}4h[2:1],
{2}5,5,
{2}6,6,
{1}7h[2:1],
{1}7h[2:1],
{2}8,8,
{2}1,1,
{1}2h[2:1],
{1}2h[2:1],
{2}1,8,
{2}7,6,
{1}5h[2:1],
{1}5h[2:1],
{2}4,3,
{2}2,1,
{1}8h[2:1],
{1}8h[2:1],
{2}7/8,7/8,
{1}7/8,
{2}5/6,5/6,
{1}5/6,
{2}3/4,3/4,
{1}3/4,
{2}1/2,1/2,
{1}1/2,
{1}1b/8b,,,,
{1}2h[2:1],
{2}2,2,
{1}3h[2:1],
{2}3,3,
{2}4,4,
{2}5,5,
{2}6,6,
{2}7,7,
{4}8b,,7,7,
{4}7,,6,6,
{4}6,,5,5,
{2}5,4/5,
{4}4/5,,3,3,
{4}3,,2,2,
{4}2,,1,1,
{2}1,1/8,
{4}1b/8b,,1,1,
{4}2,,2,2,
{4}3,,3,3,
{2}4,4/5,
{4}4/5,,5,5,
{4}6,,6,6,
{4}7,,7,7,
{4}8,,1,1,
{4}1/8,,8,8,
{2}1/8,{1}1-5[4:3],,
E
ADVANCED
(135.0){1}5h[4:15],,
{1}4h[4:7],,
{4}4,3,2,1,
{4}8,7,6,5,
{4}5,6,7,8,
{4}1,2,3,4,
{1}5^8[8:3],
{1}1^4[8:3],
{1}5^8[8:3],
{1}1b,
{4}3,3,4,4,
{4}5,5,6,6,
{1}7-4[8:3],
{1}2-5[8:3],
{4}6,6,5,5,
{4}4,4,3,3,
{1}2-5[8:3],
{1}7-4[8:3],
{4}2,2,1,1,
{4}8,8,7,7,
{1}6-1[8:3],
{1}3-8[8:3],
{4}7,7,8,8,
{4}1,1,2,2,
{1}3-8[8:3],
{1}6-1[8:3],
{2}3h[8:3]/4h[8:3],2/5,
{2}5h[8:3]/6h[8:3],4/7,
{2}1h[8:3]/2h[8:3],3/8,
{2}7h[8:3]/8h[8:3],1/6,
{8}3h[8:3],,,4,4,,,,
{8}6h[8:3],,,5,5,,,,
{8}2h[8:3],,,1,1,,,,
{8}7h[8:3],,,8,8,,,,
{1}2b/7b,,
{4}4,4,5,5,
{4}4,4,5,5,
{4}1,2,3,3/4,
{4}8,7,6,5/6,
{4}1,2,3,3/4,
{4}8,7,6,5/6,
{4}4,3,2,1/2,
{4}5,6,7,7/8,
{4}4,3,2,1/2,
{4}5,6,7,7/8,
{4}1b/6b,,1/2,3/4,
{8}6,6,5,,3^6[8:3],,,,
{4},,7/8,5/6,
{8}3,3,4,,6^3[8:3],,,,
{4},,1/2,3/4,
{8}6,6,5,,3^8[8:3],,,,
{4},,7/8,5/6,
{8}3,3,4,,6^1[8:3],,,,
{8},,,,1,1,2,2,
{8}3,3,3/4,,6h[2:1],,,,
{8}5,,4/7,,8,8,7,7,
{8}6,6,5/6,,3h[2:1],,,,
{8}4,,2/5,,2,2,3,3,
{8}4,4,5/6,,7h[2:1],,,,
{8}8,,1/6,,7,7,6,6,
{8}5,5,3/4,,2h[2:1],,,,
{4}1,3/8,7/8,5/6,
{4}3/4,{1}1-6[4:3]/2-5[4:3],,
E
EXPERT
(135.0){1}1s5[4:5],,
{1}7s3[4:5],,
{4}1/8,1/2,2/3,3/4,
{4}4/5,5/6,6/7,7/8,
{4}1/8,7/8,6/7,5/6,
{4}4/5,3/4,2/3,1/2,
{4}8b/1h[4:7],2,3,4,
{4}5,6,7,8,
{4}1b/8h[2:3],7,6,5,
{4}4h[2:1],,,2b/7b,
{4}1/2^5[2:1],8,7,6,
{4}5/6^1[2:1],4,3,2,
{8}2h[4:1],,1,,3,4,3/5,,
{8}7h[4:1],,8,,6,5,4/6,,
{4}8/7^4[2:1],1,2,3,
{4}4/3^8[2:1],5,6,7,
{8}7h[4:1],,8,,6,5,4/6,,
{8}2h[4:1],,1,,3,4,3/5,,
{4}6/2^5[2:1],7,8,1,
{4}2/6^1[2:1],3,4,5,
{8}1/6,,3/8,,4,5,4/6,,
{8}3/8,,1/6,,5,4,3/5,,
{4}3/7^4[2:1],2,1,8,
{4}7/3^8[2:1],6,5,4,
{8}3/8,,1/6,,5,4,3/5,,
{8}1/6,,3/8,,4,5,4/6,,
{8}7-3[8:1],,,1,1-5[8:1],,,,
{4}8h[4:1],6h[4:1],5,4/6,
{8}2-6[8:1],,,8,8-4[8:1],,,,
{4}1h[4:1],3h[4:1],4,3/5,
{8}7v5[16:3],,,1,1v3[16:3],,,,
{4}8h[4:1],6h[4:1],5,4/6,
{8}2v4[16:3],,,8,8v6[16:3],,,,
{4}1h[4:1],3h[4:1],4,3/5,
{1}8b/1>8[2:7],,,,
{4}2h[4:1],3,3h[4:1],,
{4}3h[4:1],4,4h[4:1],,
{4}4h[4:1],5,5h[4:1],,
{4}5h[4:1],6,6h[4:1],,
{4}6h[4:1],7,7h[4:1],8,
{4}8h[4:1],1,1h[4:1],2,
{8}2,2,3,3,4,4,5,5,
{8}6,7,8,1,2,3,4,5,
{8}3b/6b,,,,1,8,7,6,
{8}5,4,3/5,,8,1,2,3,
{8}4,5,4/6,,5,4,3,2,
{8}1,8,1/7,,4/7,,2/5,,
{8}7/8,1/6,2/5,,2,4,5,7,
{8}5,4,3/5,,7,5,4,2,
{8}4,5,4/6,,3,1,8,6,
{8}8,1,2/8,,2/5,,4/7,,
{8}1/2,3/8,4/7,,2-6[8:1],,8-4[8:1],,
{8}1,1,2/8,,7-3[8:1],,1-5[8:1],,
{8}8,8,1/7,,1-5[8:1],,7-3[8:1],,
{8}1,1,2/8,,1/3,,6/8,,
{8}1/8,2/7,3/6,,2-5[8:1],,6-1[8:1],,
{8}4,4,3/5,,7-4[8:1],,3-8[8:1],,
{8}5,5,4/6,,1v3[8:1],,5v7[8:1],,
{8}1,1,2/8,,2-6[8:1],,8-4[8:1],,
{4}1-5[8:1],7,7-3[8:1],1-5[8:1],
{4}8-4[8:1],2,1b,
E
MASTER
(135)
{4},
{4}5b/1>8[4:6],,,,,,,,8<1[4:6]/4b,,,,,,,,
1>5[4:3]/5b,6,7,8,1,2,3,4,8<4[4:3]/4b,3,2,1,8,7,6,5,
2>5[8:1]/6h[4:1],,{16}6,5,7,4,{4}6,
7<4[8:1]/3h[4:1],,{16}3,4,2,5,{4}3,
12,78,{16}1,8,2,7,3,6,4,5,{4}4-8[8:1],5-1[8:1],3>6[4:1],,
{16}8h[16:3],,,7h[16:3],,,{8}6h[4:1],,5,{16}6,5,{8}7,
{16}1h[16:3],,,2h[16:3],,,{8}3h[4:1],,4,{16}3,4,{8}2,
{16}8h[16:3],,,7h[16:3],,,{8}6h[8:5],,5,8,4,
{16}1h[16:3],,,2h[16:3],,,{8}3h[8:5],,4,1,5,
{16}8-4[8:1],,,2>6[8:1],,,{8},,8,{16}7,5,{8}6,
{16}1-5[8:1],,,7<3[8:1],,,{8},,1,{16}2,4,{8}3,
{4}2/6h[8:7],{8}5,7,4,8,3,1,
{4}7/3h[8:7],{8}4,2,5,1,6,8,
{8}67,{16}6,5,,2,1,,{8}47,25,{16}3,4,{8}2,
{8}32,{16}3,4,,7,8,,{8}52,74,{16}6,5,{8}7,
{8}76,{16}7,8,,3,4,,{8}16,38,{16}2,1,{8}3,
{8}23,{16}2,1,,6,5,,{8}83,61,{16}7,8,{8}6,
{8}67,{16}3,5,,5,7,,6,4,8,,3,5,1,,
{8}32,{16}6,4,,4,2,,3,5,1,,6,4,8,,
{8}67,{16}4,8,,6,2,,6,5,1,,3,5,1,,
{8}32,{16}5,1,,3,7,,3,4,8,,6,4,8,,
{8}1h[4:1]/2h[4:1],,,4h[4:1]/7h[4:1],,,{16}6,5,{8}6,
{8}4h[4:1]/3h[4:1],,,1-4[8:1]/2,,{16}1/8-5[8:1],,,7b,,,
{8}6h[4:1],,,3h[4:1]/8h[4:1],,,{16}2,1,{8}2,
{8}4h[4:1]/3h[4:1],,,16,{16}8,7,6,5,4,3,2,1,
{8}8h[4:1]/7h[4:1],,,5h[4:1]/2h[4:1],,,{16}3,4,{8}3,
{8}5h[4:1]/6h[4:1],,,8-5[8:1]/7,,{16}8/1-4[8:1],,,2b,,,
{8}3h[4:1],,,6h[4:1]/1h[4:1],,,{16}7,8,{8}7,
{8}5h[4:1]/6h[4:1],,,84,{4}2-7[8:1]/6-3[8:1],2b/6b,
1b/5<5[4:11],5,5,5,5,5,5,5,6,7,8,1,2,3,4,{8}5,{16}3,4,
{8}3,{16}3,4,,7,5,,{4}24,{8}18,{16}6,5,
{8}6,{16}6,5,,2,4,,{4}75,{8}81,{16}5,4,
{8}5,{16}2,5,,7,4,,{4}25,36,47,58,61,{8}27,{16}8,1,
{8}8,{16}3,1,,6,8,, 1,8,2,7,3,6,4,5, 3,4,2,5,1,6,8,7, 1,8,2,1,3,8,4,7, 5,6,7,5,8,4,1,3, 2,1,3,8,4,7,5,6, 4,5,3,4,2,5,1,6, 8,7,1,8,3,6,1,8,
{4}2b/7b,,
{8}4,86,5,13,4,86,{16}2,1,{8}3,{4}1-5[8:1],1/7-3[8:1],{8}7,{16}2,1,{8}3,27,
{8}5,13,4,86,5,13,{16}6,5,7,4,{4}8-4[8:1],8/2-6[8:1],{8}2,{16}7,8,{8}6,72,
{8}54,13,54,86,54,13,{16}7,1,{8}6,{4}8-5[8:1],8-4[8:1]/4,{8}83,{16}1,8,{8}2,38,
{8}45,86,45,13,45,86,{16}3,4,2,5,{4}1-4[8:1],1-5[8:1]/5,1b/6b,8b/3b,
{8}34,16,65,83,34,16,{16}4,8,2,6,{4}1-6[8:1],1-4[8:1]/3,{8}17,{16}7,6,{8}8,13,
{8}65,83,34,16,65,83,{16}5,1,7,3,{4}8-3[8:1],8-5[8:1]/6,{8}82,{16}2,3,{8}1,86,
{8}1-4[8:1]/4,5,16,7,8-5[8:1]/5,4,83,2,
1/4-7[8:1],2,34,4,8/5-2[8:1],7,65,5,
1-6[8:1],1,1/8-3[8:1],8,8/2-5[8:1],2,2/7-4[8:1],7,
7,{16}2,1,3,8,4,7,5,6,8,7,{4}1-4[8:1],
{8}1b/4b,{16}7,8,6,1,5,2,4,3,1,2,{4}8v5[8:1],
8b/5>5[4:5]
,,,,
,,,,
E
Re:MASTER
最終更新:2022年08月11日 15:14