東方スイーツ!~鬼畜姉妹と受難メイド~

BPM EASY BASIC ADVANCED EXPERT MASTER Re:MASTER
179 2 5 6 10+ 13 -

EXPERT MASTER Re:MASTER
譜面制作者 某S氏 rioN -

EASY


BASIC

(179.0){1},,,,,
{4},1,,1,
{4},1,1,1,
{4},2,,2,
{4},2,2,2,
{4},3,,3,
{4},3,3,3,
{4},4,,4,
{4},4,4,4,
{4},5,,5,
{4},5,5,5,
{4},6,,6,
{4},6,6,6,
{4},7,,7,
{4},7,7,7,
{4},8,,8,
{4},8,8,8,
{4},1b,,,
{4},1,,1,
{4},2,,,
{4},8,,8,
{4},7,,,
{4},2h[2:1]/8h[2:1],,,
{4},1h[2:1]/7h[2:1],,,
{4},8,,1,
{4},2/7,,,
{4},3,,3,
{4},3/4,,,
{4},6,,6,
{4},5/6,,,
{4},3h[2:1]/5h[2:1],,,
{4},4h[2:1]/6h[2:1],,,
{4},5,,4,
{4},3b/6b,,,
{4},5,5,6,
{4},6,6,7,
{4},7,7,8,
{4},1/8,,,
{4},1,1,2,
{4},2,2,3,
{4},3,3,4,
{4},4h[4:3]/5h[4:3],,,{1},
{4},3,4,3,
{4},3,4,3,
{4},6,5,6,
{4},6,5,6,
{4},4,5,4,
{4},4,5,4,
{4},4-1[4:3]/5-8[4:3],,,{1},
{4},7,8,7,
{4},7,8,7,
{4},2,1,2,
{4},2,1,2,
{4},8,1,8,
{4},8,1,8,
{4},1h[2:1]/8h[2:1],,,
{4},1b/8b,,,
{4},1/2,,1/2,
{4},2,1,2,
{4},3/4,,3/4,
{4},3,4,3,
{4},5/6,,5/6,
{4},6,5,6,
{4},7/8,,7/8,
{4},7,8,7,
{4},1/8,,1/8,
{4},1,8,1,
{4},1/8,,1/8,
{4},1,8,{1}1-5[4:3],,
E

ADVANCED

(179.0){1},,,,,
{4},3,4,3,
{4}4,3h[2:1],,4,
{4},6,5,6,
{4}5,6h[2:1],,5,
{4},7,8,7,
{4}8,7h[2:1],,8,
{4},2,1,2,
{4}1,2h[2:1],,1,
{4},3,4,3,
{4}3,4h[2:1],,5,
{4},6,5,6,
{4}6,5h[2:1],,4,
{4},7,8,7,
{4}7,8h[2:1],,1,
{4},2,1,2,
{4}2,1h[2:1],,8z4[4:3],{1},
{4},6h[2:1],,5h[2:1],
{4},4,3,3/4,
{4},3h[2:1],,4h[2:1],
{4},5,6,5/6,
{4},7,7-4[2:1],,
{4},2,2-5[2:1],,
{4},7h[2:1],,2h[2:1],
{4},8,,,
{4},2,3,4,
{4}5,6h[2:1],5,5,
{4},7,6,5,
{4}4,3h[2:1],4,4,
{4},1^6[2:1]/2^5[2:1],,,
{4},7^4[2:1]/8^3[2:1],,,
{4},1,1,8,
{4}8,2h[2:1]/7h[2:1],,,
{4},3,3,4h[4:1],
{4}3,6,6,5h[4:1],
{4}6,7,8,1,
{4}2,3^6[2:1],,,
{4},7,7,8h[4:1],
{4}7,2,2,1h[4:1],
{4}2,3,4,5,
{4}6,4^1[4:3]/5^8[4:3],,,{1},
{4},3,4,3/4,
{4}3/4,6,5,5/6,
{4}5/6,7,8,7/8,
{4}7/8,2,1,1/2,
{4}1/2,3/4,3/4,5/6,
{4}5/6,4>5[4:5],,,{1},
{4},4,5,4,
{4}5,3,3,4,
{4}4,3/4,2/5,1/6,
{4}7/8,6,6,5,
{4}5,5/6,4/7,3/8,
{4}1/2,8,1,8,
{4}1,1/8,2/7,3/6,
{4}4/5,3/4,3/4,5/6,
{4}5/6,4b/5b,,,
{4},2,3,4,
{4}5,6,7,1/8,
{4},7,6,5,
{4}4,3,2,1/8,
{4},1,2,3,
{4}4,5/6,5/6,4/7,
{4},8,7,6,
{4}5,3/4,3/4,2/5,
{4},7,8,6,
{4}1,2/5,3/4,3/4,
{4},2,1,3,
{4}8,4/7,5/6,5/6,
{4}4,{1}5<4[4:11],,,,
E

EXPERT

(179.0){4},1-4[2:1]/2-7[2:1],,,
{2},5-8[2:1]/6-3[2:1],
{4},,,7-2[2:1]/8-5[2:1],{1},
{1}3-6[2:1]/4-1[2:1],
{4},2h[4:1],1,7h[4:1],
{4}8,1/2,1/8,7/8,
{4},6h[4:1],5,3h[4:1],
{4}4,5/6,4/5,3/4,
{4},3h[4:1],1,6h[4:1],
{4}8,4/8,2/6,4/8,
{4},2h[4:1],4,7h[4:1],
{4}5,1/5,3/7,1/5,
{4},1/2h[4:1],3,8/7h[4:1],
{4}6,1/3,2/8,1/7,
{4},5/6h[4:1],7,4/3h[4:1],
{4}2,5/7,4/6,3/5,
{4},2/1h[4:1],8,7/8h[4:1],
{4}1,2/8,1/7,6/8,
{4},6/5h[4:1],4,3/4h[4:1],
{4}5,4/6,3/5,2/4,
{4},8b/1s5[16:5],,,
{8},,1/2h[8:3],,,3,3h[8:3],,
{8},4,4^7[4:1],,,,,,
{8},,8/7h[8:3],,,6,6h[8:3],,
{8},5,5^2[4:1],,,,,,
{4},7^2[4:1],2^5[4:1],,
{4},2^7[4:1],7^4[4:1],,
{4},8h[4:1],7,2h[4:1],
{4}3,2-7[4:1]/3-6[4:1],,,
{8},,5/6h[8:3],,,7,7h[8:3],,
{8},8,8^3[4:1],,,,,,
{8},,4/3h[8:3],,,2,2h[8:3],,
{8},1,1^6[4:1],,,,,,
{4},3^6[4:1],6^1[4:1],,
{4},6^3[4:1],3^8[4:1],,
{4},4h[4:1],3,6h[4:1],
{4}7,6-3[4:1]/7-2[4:1],,,
{8},,2,1,2,1,3,8,
{8}3,8,4,7,4,7,5,6,
{8}5,6,4,7,4,7,3,8,
{8}3,8,2h[2:1],,,,1b,,
{8},,7,8,7,8,6,1,
{8}6,1,5,2,5,2,4,3,
{8}4,3,5,2,5,2,6,1,
{8}6,1,7b,,,4b/8b,,,
{1}2b/6b,
{8}1,8,7^4[16:3],,,1,1,,
{8}8,1,2^5[16:3],,,8,8,,
{8}8,7,6^3[16:3],,,8,8,,
{8}1,2,3^6[16:3],,,1,1,,
{16}7,,8,,1^4[16:3],,,,,,8,,8,,,6,
{8},5p8[4:1],,,,,,,
{8}2,7,1^4[16:3],8^5[16:3],,,,,
{4},1b/8b,,,
{16}2,,1,,2-5[16:3],,,,,,8,,8,,,7,
{8},5^2[4:1]/6p1[4:1],,,,,,,
{16}7,,8,,7-4[16:3],,,,,,1,,1,,,2,
{8},3q8[4:1]/4^7[4:1],,,,,,,
{16}1,,8,,1-5[16:3],,,,,,7,,7,,,6,
{8},4^7[4:1]/5^2[4:1],,,,,,,
{8}4,5,3,7,1,8-4[16:3],,,
{4},2^5[16:3]/6^1[16:3],,,
{4}1b/8b,1,2/8,7,
{4}6/8,1/5,4/8,1-4[8:1]/7-4[8:1],
{4},8,1/7,2,
{4}1/3,4/8,1/5,2-5[8:1]/8-5[8:1],
{8},,1,8,1/7,,7,8,
{4}1/7,3/5,4/8,1v4[8:1]/7v4[8:1],
{8},,8,1,2/8,,2,1,
{4}2/8,4/6,1/5,2v5[8:1]/8v5[8:1],
{8},,1h[4:1],6,6,,7h[4:1],4,
{4}4,2/6,4/8,2-5[8:1]/6-1[8:1],
{8},,8h[4:1],3,3,,2h[4:1],5,
{4}5,3/7,1/5,3-8[8:1]/7-4[8:1],{1},
{8},1b,
E

MASTER

(179)

{8}2h[4:1],,4h[4:1],,6h[4:1],,{16}8,,,8,,,81,,
{8}7h[4:1],,5h[4:1],,3h[4:1],,{16}1,,,1,,,18,,
{8}3h[4:1],,1h[4:1],,7h[4:1],,{16}6,,,45,,,45,,
{8}6h[4:1],,8h[4:1],,2h[4:1],,{16}3,,,45,,,45,,

{4}1>4[8:1],8,1<6[8:1],2,1,5,37,15,
8<5[8:1],1,8>3[8:1],7,8,4,62,84,
2>5[8:1]/7,1,2<7[8:1]/5,3,26,48,15,37,
7<4[8:1]/2,8,7>2[8:1]/4,6,73,51,84,62,
{8}3<6[8:1],1,1,,3>8[8:1],5,5,,26,,26,15,84,,26,,
6>3[8:1],8,8,,6<1[8:1],4,4,,73,,73,84,15,,73,,
4>1[8:1]/8,7,6,,4<7[8:1]/8,1,2,,4,8,71,62,53,,48,,
5<8[8:1]/1,2,3,,5>2[8:1]/1,8,7,,5,1,28,37,{4}4>5[4:2]/6,,,,{8},1,8,7,

{4}6-3[4:1],{8},8,{4}7p3[4:1],{8},1,{4}8p3[4:1],,{8},8,1,2,
{4}3-6[4:1],{8},1,{4}2q6[4:1],{8},8,{4}1q6[4:1],,{8},5,6,7,
{4}8-4[8:1],8,{8},4,3,2,{4}1-5[8:1],1,{8},8,1,2,
{4}3v5[8:1],{8},6,{4}6v4[8:1],{8},3,{4}3p6[4:1],,{8},8,7,6,
{4}5>2[4:1],{8},7,{4}6p2[4:1],{8},8,{4}7p6[4:1],,{8},1,2,3,
{4}4<7[4:1],{8},2,{4}3q7[4:1],{8},1,{4}2q3[4:1],,{8},1,8,7,
{4}5-2[8:1]/6-1[8:1],,{8},8,1,2,{4}3-8[8:1]/4-7[8:1],,{8},1-5[8:1],8-4[8:1],1,
{4}8,{8},3v1[8:1]/7v5[8:1],{4}37,{8},6v8[8:1]/2v4[8:1],{4}62,,,45,

{8}4,5,4,5,{16}4h[16:3],,,3h[16:3],,,2,,
{8}5,4,5,4,{16}5h[16:3],,,6h[16:3],,,7,,
1h[16:3],,,2h[16:3],,,3,,8h[16:3],,,7h[16:3],,,6,,{4}4h[4:2]/5h[4:2],,,{8}18,18,
2,1,2,1,{16}2h[16:3],,,4h[16:3],,,6,,
{8}7,8,7,8,{16}7h[16:3],,,5h[16:3],,,3,,
1h[16:3],,,5h[16:3],,,7,,8h[16:3],,,4h[16:3],,,2,,
{8}1b/3b,,,8b/6b,,,1b/8b,,

{4},,,{8}7,8,

{4}1,{8},2,{4}2>6[4:2],{8}1,8,
{4}7,{8},7,{4}7<3[4:2],{8}8,1,
{4}2,{8},2,{4}2q5[4:2],{8}1,8,
{4}7,{8},7,{4}7p4[4:2],{8}8,1,
{4}2,{8},2,{16}2,,,34,,,5/6<3[8:3],,{4},,,
{8}2-5[8:1],7-4[8:1],2,7,2,7q2[4:3],{4},,,,,{8}1-5[8:1],7,
{4}1,{8},7,{16}2-7[4:1],,,7q5[4:1],,,2,,{8},8,8,7,{4}6,{8}8-4[8:1],2,
{4}8,{8},2,{16}7-2[4:1],,,2p4[4:1],,,7,,{8},1,1,2,{4}3,{8}1-5[8:1]/8-4[8:1],27,
{4}18,{8},36,{16}6-3[4:1],,,3q6[4:1],,,6,,{8},1,1,2,3,4,15,84,73,62,51,
4<7[4:1]/8>3[4:1],{4},,4-1[4:1]/8-5[4:1],,,,

1-6[8:1]/2-5[8:1],12,8-3[8:1]/7-4[8:1],87,{8}14,25,36,47,{4}58,3b/6b,
7<5[8:1]/8>2[8:1],78,2>4[8:1]/1<7[8:1],12,{8}85,74,63,52,{4}41,6b/3b,
1-5[8:1]/5,1/7-3[8:1],7/2-6[8:1],28,{8}8v5[8:1],8v3[8:1],8-4[8:1],,,,{4}1b,
8-4[8:1]/4,8/2-6[8:1],2/7-3[8:1],71,{8}1v4[8:1],1v6[8:1],1-5[8:1],,,,{4}8b,
2>4[8:1]/6,2/6<8[8:1],2-6[8:1]/6,21,{8}8-6[8:1],1-5[8:1],8-4[8:1],1-3[8:1],,,{4}8b,
7<5[8:1]/3,7/3>1[8:1],7-3[8:1]/3,78,{8}1-5[8:1],8-4[8:1],1-3[8:1],8-6[8:1],,,{4}1>8[4:2],
,,,{8},2>7[4:12]/5s1[4:12],

{4}
,,,,
,,,,
,,,,
,,,,
,,,,

E

Re:MASTER


名前:
コメント:

タグ:

+ タグ編集
  • タグ:

このサイトはreCAPTCHAによって保護されており、Googleの プライバシーポリシー利用規約 が適用されます。

最終更新:2022年08月11日 13:56