響縁

アーティスト 豚乙女

BPM EASY BASIC ADVANCED EXPERT MASTER Re:MASTER
180 2 5 6 9+ 13 -

EXPERT MASTER Re:MASTER
譜面制作者 某S氏 はっぴー -

EASY


BASIC

(180.0){1},,,,,,,,,
{1}4,
{1}4,
{1}3,
{1}3,
{1}2,
{1}2,
{2}1,1,
{2}1/8,1/8,
{2}2,2,
{2}3,3,
{2}4,4,
{1}4/5,
{2}6,6,
{2}7,7,
{2}8,8,
{1}1b/8b,
{1}3h[1:1],,
{1}4h[1:1],,
{1}6h[1:1],,
{1}5h[1:1],,
{2}4,4,
{1}3,
{2}5,5,
{1}6,
{2}7,7,
{1}8,
{2}2,2,
{1}1,
{2}1/2,8,
{1}7,
{2}5/6,4,
{1}3,
{2}1,2,
{2}3,4,
{1}5-8[4:3],,
{4}1,1,1,,
{4}2,2,2,,
{4}3,3,3,,
{4}4,4,4,,
{4}5,5,5,,
{4}6,6,6,,
{2}7/8,1/8,
{4}1/2,1/2,1/2,,
{4}8,8,8,,
{4}7,7,7,,
{4}6,6,6,,
{4}5,5,5,,
{4}4,4,4,,
{4}3,3,3,,
{2}1/2,1/8,
{4}7/8,7/8,7/8,,
{1}1h[2:1]/2h[2:1],
{1}3h[2:1]/4h[2:1],
{1}5h[2:1]/6h[2:1],
{1}7h[2:1]/8h[2:1],
{2}2/7,2,
{2}3,3,
{2}4,4,
{2}5,5,
{2}6,6,
{2}7,7,
{2}8,8,
{4}1/8,1/8,1/8,,
{2}7,7,
{2}6,6,
{2}5,5,
{2}4,4,
{2}3,3,
{2}2,2,
{2}1,1,
{4}1/8,1/8,1/8,,
{2}7/8,7/8,
{2}1/2,1/2,
{2}3/4,3/4,
{2}5/6,5/6,
{1}7b/8b,
E

ADVANCED

(180.0){1},
{2}1,1,
{2}2,2,
{577}3,,,,,,,,,,,,,,,,,,,,,,,,,,,,,,,,,,,,,,,,,,,,,,,,,,,,,,,,,,,,,,,,,,,,,,,,,,,,,,,,,,,,,,,,,,,,,,,,,,,,,,,,,,,,,,,,,,,,,,,,,,,,,,,,,,,,,,,,,,,,,,,,,,,,,,,,,,,,,,,,,,,,,,,,,,,,,,,,,,,,,,,,,,,,,,,,,,,,,,,,,,,,,,,,,,,,,,,,,,,,,,,,,,,,,,,,,,,,,,,,,,,,,,,,,,,,,,,,,,,,,,,,,,,,,,,,,,,,,,,,,,,,,,,,,,3,,,,,,,,,,,,,,,,,,,,,,,,,,,,,,,,,,,,,,,,,,,,,,,,,,,,,,,,,,,,,,,,,,,,,,,,,,,,,,,,,,,,,,,,,,,,,,,,,,,,,,,,,,,,,,,,,,,,,,,,,,,,,,,,,,,,,,,,,,,,,,,,,,,,,,,,,,,,,,,,,,,,,,,,,,,,,,,,,,,,,,,,,,,,,,,,,,,,,,,,,,,,,,,,,,,,,,,,,,,,,,,,,,,,,,,,,,,,,,,,,,,,,,,,,,,,,,,,,,,,,,,,,,,,,,,,,,,,,,,,,,,,,,,
{2}4,4,
{2}5,5,
{2}6,6,
{2}7,7,
{1}8b,
{1}1-4[2:1],
{1}5-8[2:1],
{1}2-7[2:1],
{1}6-3[2:1],
{1}1^4[2:1],
{1}5^8[2:1],
{1}1^4[2:1],
{1}5^8[2:1],
{4}8,8,7,7,
{4}6,6,5,,
{4}1,1,2,2,
{4}3,3,4,,
{4}5,5,6,6,
{4}7,7,8,,
{4}3,3,2,2,
{1}1b,
{1}3h[1:1],
{1}4h[1:1],
{1}5h[1:1],
{1}6,
{1}6h[1:1],
{1}5h[1:1],
{1}4h[1:1],
{1}3,
{4}6,6,5/6,,
{4}3,3,3/4,,
{4}5,6,5/6,,
{4}4,3,3/4,,
{4}2,2,1/2,,
{4}7,7,7/8,,
{4}1,2,1/2,,
{4}8,7,7/8,,
{4}2,2,3/4,,
{4}7,7,5/6,,
{4}1,2,3/4,,
{4}8,7,5/6,,
{1}4^1[2:1],
{1}8^5[2:1],
{1}4p1[4:5],,
{4}8,8,7,7,
{4}6,6,5/6,,
{4}4,4,3,3,
{4}2,2,1/2,,
{4}1,1,2,2,
{4}3,3,3/4,,
{4}5,5,6,6,
{4}7,7,7b/8b,,
{4}5,6,7,8,
{4}1,2,3/4,,
{4}4,3,2,1,
{4}8,7,5/6,,
{4}8,7,6,5,
{4}4,3,1/2,,
{4}1,2,3,4,
{4}5,6,7/8,,
{2}5/6,3/4,
{4}5/6,5/6,4/7,,
{2}3/4,5/6,
{4}3/4,3/4,2/5,,
{4}1,1,7,7,
{4}5,5,3,3,
{4}1,1,3,3,
{4}5,5,7,7,
{4}8,8,2,2,
{4}4,4,6,6,
{4}4,4,2,2,
{4}8,8,1/8,,
{4}6,6,5/6,5/6,
{4}3,3,3/4,3/4,
{4}6,6,5/6,5/6,
{4}3,3,3/4,3/4,
{4}2,2,1/2,1/2,
{4}7,7,7/8,7/8,
{4}2,2,1/2,1/2,
{4}7/8,1/8,1/2,,
{2}7/8,1/2,
{4}7/8,7/8,1/6,,
{2}1/2,7/8,
{4}1/2,1/2,3/8,,
{1}2b/7b,
E

EXPERT

(180.0){1},
{1}2^5[8:3],
{2}6h[2:1],7h[2:1],
{1}8^3[8:3],
{2}1h[2:1],8h[2:1],
{1}7^4[8:3],
{2}3h[2:1],2h[2:1],
{1}1^6[8:3],
{1}1b,
{4}3,3,3/4,,
{4}6,6,5/6,,
{4}4,4,3/5,,
{4}5,5,4/6,,
{4}2,1,3/8,,
{4}7,8,1/6,,
{4}4/5,3/6,2/7,1/8,
{1}1^4[4:1]/8^5[4:1],
{8}6h[4:1],,5,,3,4,3,,
{4}7h[4:1],6h[4:1],5h[4:1],4,
{4}2h[4:1],3h[4:1],4h[4:1],5,
{1}6^1[4:1],
{8}3h[4:1],,4,,6,5,6,,
{4}2h[4:1],3h[4:1],4h[4:1],5,
{1}4-1[4:1]/5-8[4:1],
{1}2b/7b,
{4}4/3h[4:7],4,5,5,
{4}4,4,5,4,
{4}5/6h[4:5],5,4,4,
{8}5,,5,,4,5,4,,
{4}8/7h[4:7],8,1,1,
{4}8,8,1,8,
{4}1/2h[4:5],1,8,8,
{8}1,,1,,8,1,8,,
{8}3,,3/4,,5,4,5,,
{8}6,,5/6,,4,5,4,,
{8}7,,7/8,,1,8,1,,
{8}2,,1/2,,8,1,8,,
{8}3,,2/4,,5,4,5,,
{8}6,,5/7,,4,5,4,,
{8}2,,1/3,,8,1,8,,
{1}1-5[4:1],
{8}3/6,,3/6,,4,5,,4h[8:3]/5h[8:3],
{2},3/6,
{8}2/7,,2/7,,2/7,,1,8h[8:3],
{4},7h[4:1],6h[4:1],5,
{8}4h[8:3],,,3h[8:3],,,2,,
{8}6h[8:3],,,7h[8:3],,,8,,
{1}1s5[2:1],
{2},2b/7b,
{4}3/5,8,4/6,1,
{4}3/5,6/8,4/6,1/3,
{4}4,5/7,5,2/4,
{2}2-6[8:1],7-3[8:1],
{4}2/4,7/8,4/6,1/2,
{2}1^4[8:1],5^8[8:1],
{4}1/2,3/4,5/6,7/8,
{1}4^1[4:1]/8^5[4:1],
{4}2,1/3,7,6/8,
{4}3/4,7/8,5/6,1/2,
{4}3,2/4,6,5/7,
{4}1/2,5/6,7/8,3/4,
{4}1/5,2/6,3/7,4/8,
{4}3/7,2/6,1/5,4/8,
{4}7/8,5/6,3/4,1/2,
{8}7-5[4:1]/8-4[4:1],,,,,,,3,
{8}4,,,6,5,,,4,
{4}5,4,3/6,2h[4:1],
{8}1,,,7,8,,,1,
{4}8,1,2/7,8h[4:1],
{4}1b,3/5,1/8,4/6,
{4}2/5,7/8,4/7,1/2,
{4}2/8,3/4,1/7,5/6,
{4}3/4,4/5,5/6,6/7,
{4}4/5,1/7,4/5,2/8,
{4}7/8,1/2,7/8,1/2,
{4}4,2,6,8,
{4}1/8,4/5,2b/7b,,
{4}2h[4:1],1,7h[4:1],8,
{4}3h[4:1],1,6h[4:1],8,
{4}4h[4:1],2,5h[4:1],7,
{4}5/6,4/5,3/4,2/3,
{2}1-6[8:1]/2-5[8:1],7-4[8:1]/8-3[8:1],
{2}1^6[8:1]/2^5[8:1],7^4[8:1]/8^3[8:1],
{4}1,3,7,5,
{8}4/5,,1/8,,2b/7b,,,3,
{8}4,,,6,5,,,4,
{4}5,4,3/6,2h[4:1],
{8}1,,,7,8,,,1,
{4}8,1,2/7,1b/8b,
{1}2b/7b,
E

MASTER

(180){2},

{4}4>5[8:3],,,,{16}7h[16:3],,,6h[16:3],,,5,,2h[16:3],,,3h[16:3],,,4,,
{4}5<4[8:3],,,18,{16}2h[16:3],,,3h[16:3],,,4,,7h[16:3],,,6h[16:3],,,5,,
{4}4>5[8:3],,,81,{16}7h[16:3],,,6h[16:3],,,5,,2h[16:3],,,3h[16:3],,,4,,
{4}5<2[4:2],,,4>5[4:2],,,,,


2-4[8:1]/6-8[8:1],,8-2[8:1]/4-6[8:1],,1-6[8:1]/8-3[8:1],,3-6[8:1],,
8<5[8:1],,4>1[8:1],,1-5[8:1]/7-3[8:1],,8-4[8:1]/2-6[8:1],,
2<7[8:1],,6q3[8:1],,5p4[8:3],,,,1>4[4:1],4<7[4:1],7>2[4:1],2>5[4:1],5,1,2b/7b,,

{8}2>5[8:1],1,8,,7<4[8:1],8,1,,2>5[8:1],1,8,,7<4[8:1],8,1,,
3>8[8:1],4,5,,6<1[8:1],5,4,,3>8[8:1],4,5,,6<1[8:1],5,4,,
2q6[8:1],1,8,,7p3[8:1],8,1,,2q6[8:1],1,8,,7p3[8:1],8,1,,
25,,56,74,,43,25,,36,4,{4}5,2b/7b,,


3>4[4:6]/4,4,4,4,3,3,3,3,6<5[4:6]/5,5,5,5,6,6,6,6,
3>4[4:6]/4,4,4,4,3,3,3,3,6<4[4:4]/5,5,5,5,6,6,{8}5b,7b,1b,3b,

7,6,{16}5,,,3,{8}4,4,17,,2,3,{16}4,,,6,{8}5,5,82,,
7,6,{16}5,,,3,{8}4,4,17,,2,3,{16}4,,,6,{8}5-1[8:1],5,,,
8,7,{16}6,,,2,{8}3,3,14,,1,2,{16}3,,,7,{8}6,6,85,,
8,7,{16}6,,,2,{8}3,3,14,,78,6,1,21,3,8,{4}27,


{8}34,3-7[8:1]/4-8[8:1],,,
,,,25,
,7-3[8:1]/8-4[8:1],78,,
,1b/2b,,,
65,6-2[8:1]/5-1[8:1],,,
,,47,47,
,2-6[8:1]/1-5[8:1],21,,
,3,4,5,

{4}6>3[4:1],,2q6[4:1],,7>6[8:5],,,,
{8}56,47,,34,25,,18,27,,36,{16}4,5,4,,{4}2b/7b,,


7-4[8:1]/8-3[8:1],78,{8}1-6[8:1],6q4[8:1],,,,8,7,6,{16}1h[16:3],,,2h[16:3],,,3,,
{4}2-5[8:1]/1-6[8:1],21,{8}8-3[8:1],3p5[8:1],,,,1,2,3,{4}1-5[8:1]/8-4[8:1],,
7<4[8:1]/8>3[8:1],78,{8}1-6[8:1],6q4[8:1],,,,8<4[8:1],{4}4>8[8:1],,,
3p7[8:1]/7p3[8:1],3<6[8:1]/7>2[8:1],,6q2[8:1]/2q6[8:1],6>3[8:1]/2<7[8:1],,2b/7b,,

7-4[8:1]/8-3[8:1],78,{8}2-5[8:1],5p3[8:1],,,,8,7,6,{16}1h[16:3],,,3h[16:3],,,5,,
{4}2-5[8:1]/1-6[8:1],21,{8}7-4[8:1],4q6[8:1],,,,1,2,3,{16}8h[16:3],,,6h[16:3],,,4,,
{4}7<4[8:1]/8>3[8:1],78,{8}2-5[8:1],5p3[8:1],,,,8,7,6,{16}1h[16:3],,,3h[16:3],,,5,,
{4}2>5[8:1]/1<6[8:1],21,{8}7-4[8:1],4q6[8:1],,,,1-4[8:1],8-5[8:1],1b,8b,,,

78,16,,,21,83,,,26,{4}2>5[8:1]/6<1[8:1],2q8[8:1],,34,
{8}52,,,65,47,,,73,{4}7<4[8:1]/3>8[8:1],7p1[8:1],,45,


{8}2>5[8:1],2,8,8,6,78,3,21,7<4[8:1],7,1,1,3,21,6,78,
2>5[8:1],2,8,8,6,78,3,21,7<4[8:1],7,1,1,3,21,6,78,
3>8[8:1],3,6,6,5,12,4,78,6<1[8:1],6,3,3,4,78,5,12,
3>8[8:1],3,6,6,5,12,4,7,1>4[8:1]/2<7[8:1],12,{4},3b/8b,,

{8}7<4[8:1],7,1,1,3,28,6,71,2>5[8:1],2,8,8,6,71,3,28,
7<4[8:1],7,1,1,3,28,6,71,2>5[8:1],2,8,8,6,71,3,28,
6<1[8:1],6,3,3,4,68,5,28,3>8[8:1],3,6,6,5,31,4,71,
6<1[8:1],6,3,3,4,68,5,2,8<5[8:1]/7>2[8:1],87,{4},6b/1b,{8},


78,16,,,21,83,,,26,{4}2>5[8:1]/6<1[8:1],6q4[8:1],,78,
{8}16,,,21,83,,,73,{4}7<4[8:1]/3>8[8:1],3p5[8:1],,18,
2b/7b,,,,
,,,,

E

Re:MASTER


名前:
コメント:

タグ:

+ タグ編集
  • タグ:

このサイトはreCAPTCHAによって保護されており、Googleの プライバシーポリシー利用規約 が適用されます。

最終更新:2022年07月21日 17:37