Still

BPM EASY BASIC ADVANCED EXPERT MASTER Re:MASTER
176 2 4 6 10 13 -

EXPERT MASTER Re:MASTER
譜面制作者 はっぴー Jack -

EASY

(176){8},,,
{1}
2,2,1,1,8,8,7,7,
8h[1:1],,7h[1:1],,6h[1:1],,5,4/5,
4h[1:1],,3h[1:1],,2h[1:1],,1,1/8,
7-3[4:3],,2-6[4:3],,7,8,
1-5[1:1],,4/5,
{2}
5,5,5,,6,6,6,,
7,7,7,,8,8,8,,
1,1,1,,2,2,2,,
3,3,3,,4,4,4,,
{1}4/5,
3,2,1,8,7,6,4/5,
4-1[4:3],,8-5[4:3],,
4,3,2,1,1/8,,
6h[1:1],,5h[1:1],,
4h[1:1],,3h[1:1],,2b,
{4}
1,1,,,2,2,,,3,3,,,4,4,,,
5,5,,,6,6,,,7,7,,,1/8,,,,
8,8,,,7,7,,,6,6,,,5,5,,,
4,4,,,3,3,,,2,2,,,1/8,,,,
{1}
1,2,3,4,5,6,7,8,
{2}
1,1-5[4:3],
,,
,,
E

BASIC

(176){8},,,
{4}
1,,1,,2,2,2,,
3,,3,,4,4,4/5,,
5,,5,,6,6,5/6,,
7,,7,,8,8,1/8,,
{1}
1-4[4:3],,8-5[4:3],,
1-6[4:3],,8-3[4:3],,
1h[1:1],,2h[1:1],,
3h[1:1],,4h[1:1],,
{4}
5,,5,,5/6,,5/6,,
7,,7,,7/8,,7/8,,
1,1,1,,8,8,8,,
1/8,,,,1/8,1/8,
1/8,,1b/8b,,,,
1,1,1,,2,2,2,,
3,3,3,,4,4,4/5,,
5,5,5,,6,6,6,,
7,7,7,,8,8,1/8,,
7,7,7,,6,6,6,,
5,5,5,,4,4,4/5,,
3,3,3,,2,2,2,,
1,1,1,,8,8,1/8,,
{1}
7-3[4:3],,2-6[4:3],,
7-4[4:3],,2-5[4:3],,
7h[1:1]/8h[1:1],,
5h[1:1]/6h[1:1],,
3h[1:1]/4h[1:1],,
1h[1:1]/2h[1:1],,
{2}
1/8,1/8,1b/8b,,
{1}
8-5[4:3],,1-4[4:3],,
5-8[4:3],,4-1[4:3],,8b,
{4}
1,1,1,,2,2,2,,
3,3,3,,4/5,4/5,4/5,,
5,5,5,,6,6,6,,
7,7,7,,1/8,1/8,1/8,,
7,7,7,,6,6,6,,
5,5,5,,4/5,4/5,4/5,,
3,3,3,,2,2,2,,
1,1,1,,1/8,1/8,1/8,,
2,2,2,,3,3,3,,
4,4,4,,5,4,4/5,,
6,6,6,,7,7,7,,
8,8,8,,1,8,1/8,,,,
{1}
1-4[4:3]/8-5[4:3],
,
,
E

ADVANCED

(176){8},,,
{4}
6,6,5,5,4,4,3,3,
3>6[4:5]/4,,,,,,,,
7,7,8,,2,2,1,,
7,7,8,8,1,8,
{2}1/8,
6h[1:1],,5h[1:1],,4h[1:1],,3,,
3h[1:1],,4h[1:1],,5h[1:1],,6,4/5,
6h[2:1],5,3h[2:1],4,6h[2:1],5,4h[2:1],5,
3h[2:1],4,6h[2:1],5,4h[2:1],5,3/6,4/5,
{4}
6,6,5,,4,4,4/5,,
3,3,4,,5,5,4/5,,
4qq1[4:5]/5pp8[4:5],,,,,,,,
1h[2:1]/8h[2:1],,,,
8,8,1,1,2b/7b,,,,
2,2,1,1,2,1,3/8,,
7,7,8,8,7,8,1/6,,
6,5,4/7,,3,4,2/5,,5,5,4,4,
4h[4:1]/5h[4:1],,3/6,,
2,1,3/8,,7,8,1/6,,
4-1[4:3]/5-8[4:3],,,,,,2/7,,
5,6,7/8,,4,3,1/2,,8,8,1,1,
1-4[2:1]/8-5[2:1],,,,
3,3,4,4,5,6,5/6,,
6,6,5,5,4,3,3/4,,
2,2,1,1,8,7,7/8,,
7,7,8,8,1,8,2/7,,
6h[2:1],5,5,,3h[2:1],4,4,,
5s1[4:3]/4,,,,,,2/8,,
3,3/4,3,3/4,6,5/6,6,5/6,
3,3/4,6,5/6,4/5,4/5,3/6,,
3V14[4:5]/6V85[4:5],,,,,,,,
3,3,3/4,,5,4,4/5,,
6,6,5/6,,4,5,4/5,,
4qq1[4:5]/5pp8[4:5],,,,,,,,
1h[2:1]/8h[2:1],,,,
1,1,8,8,2b/7b,,,,
2,2,1,1,2,1/2,3/8,,
7,7,8,8,7,7/8,1/6,,
3,3/4,2/5,,6,5/6,4/7,,
4,4,5,4,4h[4:1]/5h[4:1],,3/6,,
1/2,1/2,3/8,,7/8,7/8,1/6,,
4^1[4:3]/5^8[4:3],,,,,,2/7,,
4,3,1/2,,5,6,7/8,,1,1,8,8,
1^4[2:1]/8^5[2:1],,,,
3,3,4,4,5,5,6,6,
6<3[4:3]/5,,,,,,4/5,,
6,6,5,5,6,5/6,4/7,,
3,3,4,4,3,3/4,2/5,,
3/6,4/5,2b/7b,,
{1}
,
,
E

EXPERT

(176){8},,,
{4}2/7,4/5,
3,2/4,6,5/7,2,1/3,7h[4:1],
{8}
8,8,,5>7[4:1]/6,,,,,,,4/5,,3/4,,
3/6,,5,,7,7,8,,3/5,,4,,2,2,1,,
4/5,,3/6,,1/8,,2/7,2/7,,3,4,5,4,5,
{1}
6^3[2:1],6^3[2:1],6^3[2:1],
6^3[2:1],6p2[2:1],6q2[2:1],
6^3[2:1],6^3[2:1],
{4}4/5,
6h[4:15]/3,5,5,3,4,5,5,3,4,5,5,3,4,5,5,3,
7h[1:3]/2,5,5,2,4,5,5,2,4,5,5,3,2,,
{8}5,5,4,,{4}
1h[4:3]/6^3[4:1],,,8,8h[4:3]/3^6[4:1],,,1,
1h[4:3]/6^3[4:1],,,8,8h[4:3]/3^6[4:1],,,1,
{8}
4/5,,5/7,,6,6,5/6,,
4/5,,2/4,,3,3,3/4,,
1b,,,,,,,
4h[4:1]/5h[4:1],,,4/5,,
1/8,,3/6,,2/7,2/7,,,,,4/5,,{2}
3^8[8:1]/5,6^1[8:1]/4,3^8[8:1]/5,{8}4/6,,1,1,{2}
2^5[8:1]/8,7^4[8:1]/1,2^5[8:1]/8,{4}1/7,
6h[4:1],8h[4:1],1h[4:1],3h[4:1],
1h[4:1],8h[4:1],6h[4:1],3,4/5,
1>8[8:3]/8,,,,{8}1/8,1/8,,
2h[4:1]/7h[4:1],,,2/7,,{2}
6^1[8:1]/4,3^8[8:1]/5,6^1[8:1]/4,
{8}3/5,,8,8,1h[4:1],,3,3,,
4/5,,5/7,,1/8,1/8,2/7,,4/5,
{4}4/5,
5/6,5-1[4:1]/7,8h[4:1],,
3/4,4-8[4:1]/2,1h[4:1],,
1/8,4^1[4:1]/5^8[4:1],,,
2/7,,,4/5,{8}
8h[8:3],,,5h[8:3],,,7h[8:3],,,8,,7/8,7/8,,5/6,,
7h[8:3],,,6h[8:3],,,5h[8:3],,,6h[8:3],,,8,,5/6,,
8h[8:3],,,6h[8:3],,,5h[8:3],,,6h[4:1],,7,6,,5/8,,
7h[8:3],,,5h[8:3],,,8,,,3,3,,4,3,2,,
2h[8:3],,,3h[8:3],,,4h[8:3],,,1h[8:3],,,
2,,2/3,,1b/4w8[4:1],,,,,,,2h[4:1],,1,1,,2,3,
{4}4,6,5/6,6,5/6,3,3/4,3,3/4,
2^7[8:1]/5,,,4/5,4/7^2[8:1],,,
{8}4/5,,3/6,3/6,,5/7,,2/4,,1b/8b,,,,,{4}
4,5,6h[1:1],,5,5,3h[1:1],,4,4,6h[1:1],,5,5,3,3,
5^8[4:1]/4,4,4,4,4^1[4:1]/5,5,5,5,4/5,4/5,2/7,,,
{8},4h[4:1]/5h[4:1],,,5/7,,
4/5,,2/3,,1/8,1/8,,,,,4/5,,{2}
4^1[8:1]/3,5^8[8:1]/6,4^1[8:1]/3,{8}5/6,,7,7,{2}
8^5[8:1]/7,1^4[8:1]/2,8^5[8:1]/7,{4}1/2,
2h[4:1],4h[4:1],5h[4:1],7h[4:1],
5h[4:1],4h[4:1],2h[4:1],7,1/8,
5<4[2:1]/4,,,,{8}1/8,1/8,,2h[4:1]/7h[4:1],,,2/7,,
{2}5^8[8:1]/6,4^1[8:1]/3,5^8[8:1]/6,
{8}4/3,,1,1,8h[4:1],,7,7,,4/5,,2/4,,
1/8,1/8,2/7,,4/5,{4}4/5,,
3/4,2/4<8[4:1],1h[4:1],,5/6,7/5>1[4:1],8h[4:1],,
4/5,1^4[8:1]/8^5[8:1],,8h[2:1]/7b,,,4/5,
3,2/4,6,5/7,3,2/4,7,6/8,
{8}
2h[4:1],,1,1,,3/4<2[4:1],,,,,,,4/5,,5/6,,
3/5,,4,,2,2,1,,4/6,,5,,7,7,8,,5/6,,4/7,,
3/4,,2/5,,2^7[8:1]/5,,,,4/5,,1/8,,5,5,4,,
{1}
2b/7b,
,
,
E

MASTER

(176){8}
5,5,5,4/6^1[8:1],,2,,3,4,2/5,,6,5,4/7,,
6,5,4,3,2-5[8:1]/5,,6,6-1[8:1],,3>6[8:3],,
6,,,,,1/8,,{16}5,4,5,4,{8}
6^3[8:1],,1,,2,3,4,2^7[8:1]/5,,6,
6-1[8:1],,2q5[4:1],,8,8,,6,
6-1[8:1]*-2[8:1],,,,1/2,3/8,,
7,8,1/6,5,4,2/7,,1,,3,4,5h[4:1],,6,,
1,,3,4,5h[4:1],,6,,1,,3,4,5h[4:1],,6,,
7-4[8:1],2,7,,7-4[8:1],2,7,,
1,,3,4,5h[4:1],,6,,1,,3,4,5h[4:1],,6,,
1,,3,4,5h[4:1],,6,,
2-5[8:1],7,2,,2-5[8:1],7,2,,
{4}8h[4:3]/1,1,1v6[8:1],,
7h[4:3]/8,8,8v5[8:1],,6h[4:3]/7,7,7v4[8:1],,
5h[4:1]/6v3[8:1],,4h[4:1]/5v2[8:1],,
1h[4:3]/8,8,8v3[8:1],,2h[4:3]/1,1,1v4[8:1],,
3h[4:3]/2,2,2v5[8:1],,4h[4:1]/3v6[8:1],,
{8}4/5,6,7,8,1/2,3/8,,5/6,4/7,,8,8-4[8:1],,
1-3[8:1],,7-5[8:1],,8h[8:3],,,
7,1/6,,3/4,2/5,,1,1-5[8:1],,8-6[8:1],,2-4[8:1],,
1,8,7h[4:1],,8,1/6,{16}3,4,{8}3,2/5,1/6,7/8,,1/2,3/8,
{16}6,5,6,,4/7,,1,8,1,8,{8}2/7,,,,,,,8-4[8:1],,1,2,3,
4/5,6,7,8,1/2,7/8,1-5[8:1],,8h[4:1],,
{24}4,3/7,2/6,1/5,,,{8}1^4[8:1],,7,7p3[8:1],,2,
2p5[8:1],,8<1[4:1],,4,4h[8:3],,,8,8,
7p2[8:1],,1,1h[8:3],,,3V14[4:1]*pp4[4:1],,,,,
7/8,,,1^4[8:1]/7,8,1,,5,5qq4[4:1],,
4<8[4:1],,1,,,2-7[8:1],,6-3[8:1]/2,,
1-4[8:1]/6,,5q8[2:1]/1,,1,1h[8:3],,,,,2,
2>8[8:1],,6h[8:3],,{24}1,2,3,4,,,{8},
8-4[8:1],,3,3q7[8:1],,8,8^5[8:1],,
2q3[4:1],,6,6h[8:3],,,3,4/5,2/7,,1/8,
1^6[8:1]/8^3[8:1],,1-5[8:1]/8-4[8:1],,1^4[8:1]/8^5[8:1],,
1/8,,1b/8b,,,{16}6,5,4,3,2/7,,,,
1/5,,2/6,,3/7,,4V28[8:1]/8V64[8:1],,,,
4/8,,,,,,2/6,,,,4/8,,4qq1[8:3]/8qq5[8:3],,,,
4/8,,,,,,,,,,2/6,,,,1,8,1,8,2/7,,,,,,4,4,
{8}5,,1/8,,7qq5[8:1],,,8>4[4:1],,,6h[8:3],,,5,,4,
{16}4h[16:3],,,3h[16:3],,,{8}2,2pp4[8:1],,,1<5[4:1],,,
3h[8:3],,,4,,5/6,5-3[8:1]/6-8[8:1],,5/6,,
2-6[8:1],,2,7-3[8:1],,7,1-5[8:1],,1,8-4[8:1],,8,
1,2,3/5,,4h[4:1]/7h[4:1],,,1h[4:1]/6h[4:1],,,
4>6[4:1]/8pp5[4:1],,,,,,4,3,2,1/5,1/5,,3/7,3/7,,
2-5[8:1],1,8,7-4[8:1],8,1,2-5[8:1],1,8,7,,
{24}6,5,4,3,2,1,8,7,6,5,4,3,2,1,8,7,6,5,
{8}1b,8^5[8:1],1,2,3,4^1[8:1],5,6,7,
8,1,2,3,3h[4:1]/4,,8,7,6h[4:1]/5,,1,2,3/4,
{16}6h[16:3]/5,,,7h[16:3],,,8,,{8}1/2,3/8,,1/6,,
1>8[2:1]/8<1[2:1],,1/8,,,,,8-4[8:1],,8,,1/5,
5-8[8:1]*^8[8:1],,5-2[8:1]*^2[8:1],,5w1[8:1],,5,,3/7,3/7,,
2,3,4,5,6,5/7,,3,2/4,,8,8^5[8:1],,8^3[8:1],,8-4[8:1],,8,,,3,
2/4,,6,5/7,,1,1-5[8:1],,8-4[8:1],,2-6[8:1],,5<4[2:1],,
1h[4:3],,,,,,,5<4[2:1],5,1,,,,,,
{16}4,5,4,5,3/6,,,,,,,,,,,,,,{8}1-5[8:1],,6,7,8,1/5,
4/8,3/7,2/6,1/5,1/5,8-4[8:1],,1h[4:1],,
{24}5b,2b/6b,3b/7b,4b/8b,,,{8}8^5[8:1],,2,
2q6[8:1],,7,7q4[8:1],,1>8[8:3],,5,5h[8:3],,,1,1,
6q3[4:1],,4,4h[8:3],,,2<5[4:1],,3,,4,2b/7b,,,8^5[8:1]/2,1,8,,4,
4qq5[4:1],,5<4[8:3],,1,,,7-2[8:1],,3-6[8:1]/7,,8-5[8:1]/3,,4p1[2:1]/8,,8,
8h[2:1],,,,,7,7<1[8:1],,3h[8:3],,{24}8,7,6,5b,,,{8},1-5[8:1],,6,6p2[8:1],,1,
1^4[8:1],,7p6[8:3],,3,3h[4:1],,,6,4/5,2/7,,1/8,1b^6[8:1]/8b^3[8:1],,
1b-5[8:1]/8b-4[8:1],,1b^4[8:1]/8b^5[8:1],,
1/8,,1b/8b,,,{16}3,4,5,6,{8}2/7,,4/8,3/7,2/6,
1V35[4:1]/5V71[4:1],,1/5,,,3/7,,2/6,2^5[8:1]/6^1[8:1],,
2/6,,,3^8[8:1]/7^4[8:1],,7p1[8:1],,,,4b/8h[4:3],,,,,,,,
3^8[8:1]/5,,7,,6,5,4/7,,3,4,2/5,,3,4,5,6,7-3[8:1]/4,,4,4-8[8:1],,
5<4[8:3],,1,,,,,1/8,,{16}4,5,4,5,
{8}3^6[8:1],,8,,7,6,5,7^2[8:1]/4,,3,3-8[8:1],,7p4[8:3],,1,1,,3,
3-7[8:1]*-8[8:1],,,,7/8,1/6,,2/7,3/6,4/5,1/8,2/7,3/6,,
{16}1-5[8:1],5,3,7,{1}1b>8[4:11]*<2[4:11],,
,
,
E

Re:MASTER


  • MASTER560ノーツ付近他スライドの速度などを修正しました。 -- 名無しさん (2018-04-15 02:08:48)
  • 8;になっていたので8:3にしました。 -- 名無しさん (2020-12-12 17:29:25)
名前:
コメント:

タグ:

+ タグ編集
  • タグ:

このサイトはreCAPTCHAによって保護されており、Googleの プライバシーポリシー利用規約 が適用されます。

最終更新:2020年12月12日 17:29