[宴]疾走あんさんぶる

BPM 属性 COMMENT
132 3人用!? (上・左下・右下)
固定オプション
ミラーモード 無いし
画面中央表示 無いし
トラックスキップ 無いし
ジャッジスタイル 無いし

属性:協

(195){1}
1h[4:23],8h[4:19],6h[4:15],5h[4:11],4h[4:7],3h[4:3],
{512}1/3,4/5,6/8,,{128},,,{32},,,{8},,,
{512}1/3,4/5,6/8,,{128},,,{32},,,{8},,,
{512}1/3,4/5,6/8,,,,,,{64},,,{16},,,
{512}1/3,4/5,6/8,,,,,,{64},,,{16},,,
{512}1b/3b,4b/5b,6b/8b,,{128},,,{32},,,{8},,,
{512}0/1,3h[4:15]/4h[4:15],5h[4:7]/6h[4:7],,{128},,,{32},,,
{8}1,8,8,1,1,8,8,1,1,8,8,1,1,8,8,
{512}0/1h[4:15],6/8h[4:15],,{128},,,{32},,,
{8}6,5,5,6,6,5,5,6,6,5,5,6,6,5,5,
{512}0/3,5h[4:7]/6h[4:7],,{128},,,{32},,,
{8}3,4,4,3,3,4,4,3,3,4,4,3,3,4,4,
{256}0/1,3/6,{128},,,{32},,,{256}0/1,3/6,{128},,,{32},,,
{256}0/4,5/8,{128},,,{32},,,{256}0/4,5/8,{128},,,{32},,,
{256}0/1,3/6,{128},,,{32},,,{256}0/1,3/6,{128},,,{32},,,
{256}0/4,5/8,{128},,,{32},,,{256}0/4,5/8,{128},,,{32},,,
{256}0/1,3/6,{128},,,{32},,,{256}0/1,3/6,{128},,,{32},,,
{256}0/4,5/8,{128},,,{32},,,{256}0/4,5/8,{128},,,{32},,,
{256}0/1,3/6,{128},,,{32},,,{256}0/1,3/6,{128},,,{32},,,
{256}0/4,5/8,{128},,,{32},,,{256}0/4,5/8,{128},,,{32},,,
{512}0/3h[4:7],4h[4:7]/5h[4:15],6h[4:15]/8,,{128},,,{32},,,
{8}8,1,1,8,8,1,1,8,8,1,1,8,8,1,1,
{256}0/1h[4:15],3/8h[4:15],{128},,,{32},,,
{8}3,4,4,3,3,4,4,3,3,4,4,3,3,4,4,
{256}0/3h[4:7],4h[4:7]/6,{128},,,{32},,,
{8}6,5,5,6,6,5,5,6,6,5,5,6,6,5,5,
{256}0/3,6/8,{128},,,{32},,,{256}0/3,6/8,{128},,,{32},,,
{256}0/1,4/5,{128},,,{32},,,{256}0/1,4/5,{128},,,{32},,,
{256}0/3,6/8,{128},,,{32},,,{256}0/3,6/8,{128},,,{32},,,
{256}0/1,4/5,{128},,,{32},,,{256}0/1,4/5,{128},,,{32},,,
{256}0/3,6/8,{128},,,{32},,,{256}0/3,6/8,{128},,,{32},,,
{256}0/1,4/5,{128},,,{32},,,{256}0/1,4/5,{128},,,{32},,,
{256}0/3,6/8,{128},,,{32},,,{256}0/3,6/8,{128},,,{32},,,
{256}0/1,4/5,{128},,,{32},,,{256}0/1,4/5,{128},,,{32},,,
{4}
5h[4:3]/6h[4:3],3h[2:1]/4h[2:1],1h[4:1]/8h[4:1],,
3h[4:3]/4h[4:3],5h[2:1]/6h[2:1],1h[4:1]/8h[4:1],,
5h[4:3]/6h[4:3],3h[2:1]/4h[2:1],1h[4:1]/8h[4:1],,
3h[4:3]/4h[4:3],5h[2:1]/6h[2:1],1h[4:1]/8h[4:1],,
{8}
1/8,1h[8:5]/8h[8:5],5/6,5h[8:3]/6h[8:3],3/4,3h[8:1]/4h[8:1],,,
1/8,1h[8:5]/8h[8:5],3/4,3h[8:3]/4h[8:3],5/6,5h[8:1]/6h[8:1],,,
1/8,1h[8:5]/8h[8:5],5/6,5h[8:3]/6h[8:3],3/4,3h[8:1]/4h[8:1],,,
1/8,1h[8:5]/8h[8:5],3/4,3h[8:3]/4h[8:3],5/6,5h[8:1]/6h[8:1],,,
{256}0/5h[8:1],6h[8:1]/8h[8:1],,,{64},,,{16},,,
{256}0/5h[8:1],6h[8:1]/8h[8:1],,,{64},,,{16},,,
{256}0/1h[8:1],3h[8:1]/4h[8:1],,,{64},,,{16},,,
{256}0/1h[8:1],3h[8:1]/4h[8:1],,,{64},,,{16},,,
{256}0/5h[8:1],6h[8:1]/8h[8:1],,,{64},,,{16},,,
{256}0/5h[8:1],6h[8:1]/8h[8:1],,,{64},,,{16},,,
{256}0/1h[8:1],3h[8:1]/4h[8:1],,,{64},,,{16},,,
{256}0/1h[8:1],3h[8:1]/4h[8:1],,,{64},,,{16},,,
{256}0/5h[8:1],6h[8:1]/8h[8:1],,,{64},,,{16},,,
{256}0/1h[8:1],3h[8:1]/4h[8:1],,,{64},,,{16},,,
{256}0/5h[8:1],6h[8:1]/8h[8:1],,,{64},,,{16},,,
{256}0/1h[8:1],3h[8:1]/4h[8:1],,,{64},,,{16},,,
{256}0/5h[8:1],6h[8:1]/8h[8:1],,,{64},,,{16},,,
{256}0/1h[8:1],3h[8:1]/4h[8:1],,,{64},,,{16},,,
{256}0/5h[8:1],6h[8:1]/8h[8:1],,,{64},,,{16},,,
{256}0/1h[8:1],3h[8:1]/4h[8:1],,,{64},,,{16},,,
{256}0/3h[16:7],4h[16:7]/6,,,{64},,,{16}5,6,5,6,5,6,5,
{256}0/3,5h[16:15]/6h[16:15],,,{64},,,{16}4,3,4,3,4,3,4,
{256}0/1,3h[16:7]/4h[16:7],,,{64},,,{16}8,1,8,1,8,1,8,
{256}1h[16:7]/3,6/8h[16:7],,,{64},,,
{16}4/5,3/6,4/5,3/6,4/5,3/6,4/5,
{4}1h[8:1]/8h[8:1],1h[8:1]/8h[8:1],3h[8:1]/6h[8:1],3h[8:1]/6h[8:1],
{256}1h[8:1]/4h[8:1],5h[8:1]/8h[8:1],,,{64},,,{16},,,
{256}1h[8:1]/4h[8:1],5h[8:1]/8h[8:1],,,{64},,,{16},,,
{512}1/3,4/5,6/8,,{128},,,{32},,,{8},,,
{512}0/1,3h[4:31]/4h[4:17],5h[4:15]/6h[4:15],,,,,,{64},,,
{16}8,1,8,1,8,1,8,1,8,1,8,1,8,1,8,
2,7,2,7,2,7,2,7,2,7,2,7,2,7,2,7,
1,8,1,8,1,8,1,8,2,7,2,7,2,7,2,7,
1,8,1,8,2,7,2,7,1,8,2,7,1,,,,
{256}0/1h[4:31],6/8h[4:31],,,{64},,,{16}5,6,5,
6,5,6,5,2h[4:13]/6,5,6,5,6,5,6,5,
7,4,7,4,7,4,7,4,7,4,7,4,7,4,7,4,
6,5,6,5,6,5,6,5,7,4,7,4,7,4,7,4,
6,5,6,5,7,4,7,4,6,5,7,4,6,,,,
{256}0/3,5h[4:1]/6h[4:15],,,{64},,,{16}4,3,4,
3,4,3,4,3/7h[4:13],4,3,4,3,4,3,4,
2,5,2,5,2,5,2,5,2,5,2,5,2,5,2,5,
3,4,3,4,3,4,3,4,2,5,2,5,2,5,2,5,
3,4,3,4,2,5,2,5,3,4,2,5,3,,,,
{512}1/3,4/5,6/8,,{128},,,{32},,,{8},
{512}1/3,4/5,6/8,,{128},,,{32},,,{8},
{512}1/3,4/5,6/8,,{128},,,{32},,,{8},
{512}1/3,4/5,6/8,,{128},,,{32},,,{8},
{512}1/3,4/5,6/8,,{128},,,{32},,,
{512}1/3,4/5,6/8,,{128},,,{32},,,
{512}1/3,4/5,6/8,,{128},,,{32},,,
{512}1/3,4/5,6/8,,{128},,,{32},,,
{512}1/3,4/5,6/8,,{128},,,{32},,,{8},
{512}1/3,4/5,6/8,,{128},,,{32},,,{8},
{512}1h[4:1]/3h[4:1],4h[4:1]/5h[4:1],6h[4:1]/8h[4:1],,{128},,,{32},,,{8},,,
{512}1h[4:1]/3h[4:1],4h[4:1]/5h[4:1],6h[4:1]/8h[4:1],,{128},,,{32},,,{8},,,
{512}1b/3b,4b/5b,6b/8b,,{64},,,{16},,,
{512}1b/3b,4b/5b,6b/8b,,{64},,,{16},,,
{512}1b/3b,4b/5b,6b/8b,,{64},,,{16},,,,,,,
{512}1h[4:23]/3h[4:7],4/5,6h[4:23]/8h[4:7],,,,,,{64},,,{16},,,
{4}4/5,2/7,2/7,4/5,2/7,4/5,4h[4:7]/5h[4:7],
3/8,3/8,2/7,2/7,3/8,2/7,3/8,3h[1:4]/8h[1:4],
4/5,2/7,4/5,2/7,4/5,2/7,4/5,4h[1:2]/5h[1:2],
1/6,1/6,2/7,2/7,1/6,2/7,1/6,1/6,
{512}1h[4:7]/3h[4:23],4/5,6h[4:7]/8h[4:23],,{128},,,{32},,,
{8}4/5,4/5,,2/7,2/7,2/7,,4/5,,2/7,,4/5,4/5,4h[4:7]/5h[4:7],,
1/6,1/6,1/6,,2/7,2/7,2/7,,1/6,2/7,1/6,2/7,1/6,,1h[4:15]/6h[4:15],,
4/5,4/5,2/7,,4/5,4/5,2/7,,4/5,4/5,2/7,2/7,4/5,,4h[4:7]/5h[4:7],,
3/8,3/8,3/8,,2/7,2/7,2/7,,3/8,2/7,3/8,2/7,3/8,,
{512}1b/3b,4b/5b,6b/8b,,,,,,{64},,,{16},,,
{512}1-5[1:1]/8-4[1:1]3,4h[2:1]/5h[2:1],6/3,,,,,,{64},,,{16},,,
{4},2h[4:3]/7h[4:3],,1h[4:1]/8h[4:1],,
{512}1b/2b,4b/5b,7b/8b,,{128},,,{32},,,{8},,,
{512}0/1h[4:9],2h[4:23]/4,7h[4:7]/8h[4:7],,,,,,{64},,,{16}
5,4,5,4,5,4,5,3,6,3,6,3,6,3,6,
4,5,4,5,3,6,3,6,4,5,3,6,4,5,4,,
{256}0/4h[4:31],5h[4:31]/7,,,{64},,,{16}8,7,8,
7,8,7,8,3h[4:13]/7,8,7,8,7,8,7,8,
6,1,6,1,6,1,6,1,6,1,6,1,6,1,6,1,
7,8,7,8,7,8,7,8,6,1,6,1,6,1,6,1,
7,8,7,8,6,1,6,1,7,8,1,6,7,,,,
{256}0/2,7h[4:15]/8h[4:1],,,{64},,,{16}1,2,1,
2,1,2,1,2/6h[4:13],1,2,1,2,1,2,1,
3,8,3,8,3,8,3,8,3,8,3,8,3,8,3,8,
2,1,2,1,2,1,2,1,3,8,3,8,3,8,3,8,
2,1,2,1,3,8,3,8,2,1,3,8,2,,,,
{512}1/2h[4:7],4h[4:23]/5h[4:7],7h[4:23]/8,,{128},,,{32},,,
{8}1/8,1/8,,3/6,3/6,3/6,,1/8,1/8,3/6,3/6,1/8,,1h[4:7]/8h[4:7],,
2/5,2/5,2/5,,3/6,3/6,3/6,,2/5,3/6,2/5,3/6,2/5,,2h[1:4]/5h[1:4],,
1/8,1/8,3/6,3/6,1/8,1/8,3/6,3/6,1/8,3/6,1/8,3/6,1/8,,1h[1:2]/8h[1:2],,
4/7,4/7,4/7,,3/6,3/6,3/6,,4/7,3/6,4/7,3/6,4/7,,4/7,,
{512}1/2h[4:23],4h[4:7]/5h[4:23],7h[4:7]/8,,{128},,,{32},,,
{8}1/8,1/8,1/8,3/6,3/6,3/6,3/6,1/8,1/8,3/6,3/6,1/8,1/8,1h[1:2]/8h[1:2],,
4/7,4/7,3/6,3/6,4/7,4/7,3/6,,4/7,3/6,4/7,3/6,4/7,,4h[4:15]/7h[4:15],,
1/8,1/8,3/6,3/6,1/8,1/8,3/6,3/6,1/8,1/8,3/6,3/6,1/8,,1h[4:7]/8h[4:7],,
2/5,2/5,2/5,2/5,3/6,3/6,3/6,3/6,2/5,3/6,2/5,3/6,2/5,,
{512}1b/2b,4b/5b,7b/8b,,,,,,{64},,,{16},,,4,5,4,5,
7,8,7,8,2,1,2,1,4,5,4,5,2,1,2,1,7,8,7,8,4,5,4,5,
2/7,1/8,2/7,1/8,4,5,4,5,2/7,1/8,2/7,1/8,4,5,4,5,
{256}0/2,4/7,,,{64},,,
{256}0/1,5/8,,,{64},,,
{256}0/2,4/7,,,{64},,,
{256}0/1,5/8,,,{64},,,
{256}0/2b,4b/7b,,,{64},,,{16},,,
{256}1b/2b,4b/5b,7b/8b,,{64},,,{16},,,
{1}
,
,
,
E

  • 3個以上のEACHを256分、5個以上のEACHを512分で擬似再現しました。なので再生時EACH数は実際の譜面とおそらく一致していません。 -- 名無しさん (2018-04-15 12:13:15)
  • 奇数のEACHは仕様上作れないと思ったので、0番を使い2個ひと組にしてます。0番はカウントされない為再生時のノーツ数は合います。 -- 名無しさん (2018-04-15 12:16:00)
  • 譜面が譜面なので修正箇所を見つけたときは都度修正おねがいします。 -- 名無しさん (2018-04-15 12:17:33)
  • 補足:1000ノーツ付近の{16}中略7,8,7,8,6,1,6,1,7,8,1,6,7,,,,は多分合ってるはずです…。参考:sm33021697 -- 名無しさん (2018-04-15 20:23:03)
  • ↑の配置が本配信で修正されてるか気になります。 -- 名無しさん (2018-05-11 06:55:45)
  • そのままでした -- 名無しさん (2018-05-22 15:58:47)
名前:
コメント:

タグ:

+ タグ編集
  • タグ:

このサイトはreCAPTCHAによって保護されており、Googleの プライバシーポリシー利用規約 が適用されます。

最終更新:2021年04月29日 11:11