TRUST

BPM EASY BASIC ADVANCED EXPERT MASTER Re:MASTER
190 3 5 7 10 12 -

EXPERT MASTER Re:MASTER
譜面制作者 サファ太 玉子豆腐 -

EASY

(190){1},,,,,,1,2,3,4,5,6,7,8,1/8,,
8h[1:1],,7h[1:1],,6h[1:1],,{2}5,5,{1}4/5,
4h[1:1],,3h[1:1],,2h[1:1],,1b,,
2-6[4:3],,{2}7,7,{1}7,
7-3[4:3],,{2}2,2,{1}2,1/8,1/8,
{4}
1,1,,,2,2,,,3,3,,,4/5,,,,5,5,,,6,6,,,7,7,,,8,8,,,
8,8,,,7,7,,,6,6,,,4/5,,,,4,4,,,3,3,,,2,2,,,1,1,,,
{2}1,1,2,2,3,3,4/5,,5,5,6,6,7,7,1/8,,
{4}
8,8,8,,7,7,7,,6,6,6,,4/5,,,,
4,4,4,,3,3,3,,2,2,2,,1/8,,,,
1,1,1,,2,2,2,,3,3,3,,4/5,,,,
{2}4,4,3,3,2,2,1,1,8,8,7,7,6,6,
{1}5b,4-1[4:3],,8-5[4:3],,
{2}5,5,6,6,{1}7-3[4:3],,2-6[4:3],,,,E


BASIC

(190){1},,,,,,{2}
1,1,2,2,3,3,4,4/5,5,5,6,6,7,7,8,1/8,1h[1:1]/8h[1:1],,,,
1,1,1/2,1/2,1h[1:1]/2h[1:1],,,,8,8,7/8,7/8,7h[1:1]/8h[1:1],,,,
6,6,5/6,5/6,5h[1:1]/6h[1:1],,,,4,4,3/4,3/4,3h[1:1]/4h[1:1],,,,
{1}5-8[4:3],,4-1[4:3],,8-5[4:3],,1-4[4:3],,8h[1:1],,
{4}1b,1,1,,2,2,2,,3,3,3,,4,4,4/5,,5,5,5,,6,6,6,,7,7,7,,8,8,1/8,,
7,7,7,,6,6,6,,5,5,5,,4,4,4/5,,3,3,3,,2,2,2,,1,1,1,,8,8,1/8,,
1,1,1,,1/2,1/2,1/2,,8,8,8,,7/8,7/8,7/8,,
{1}1-5[4:3],,8-4[4:3],,
{4}1,1,1,,2,2,1/2,,3,3,3,,4,4,4/5,,5,5,5,,6,6,5/6,,7,7,7,,8,8,1/8,,
1,1,1/2,,3,3,3/4,,5,5,4/5,,6,6,5/6,,
7,7,7,,7/8,7/8,7/8,,1,1,1,,1/2,1/2,1/2,,
1,1,8,8,7,7,7/8,,8,8,1,1,2,2,1/2,,
{1}8-5[4:3],,1-4[4:3],,8h[1:1],,1h[1:1],,1-4[4:3]/8-5[4:3],,,E


ADVANCED

(190){1}4qq1[4:5],,8qq5[4:5],,3>6[4:5]/6,,
{4}6,6,5,,3,3,4,,6,6,5,,4,4,4/5,,2,2,1,,7,7,8,,2,2,1,,8,8,1/8,,
{1}1pp4[4:5]/8qq5[4:5],,
{4}4,4,4,,5,5,5,,3,3,4,,6,6,5/6,,1,1,1,,8,8,8,,2,2,1,,7,7,7/8,,
6,6,5/6,,3,3,3/4,,4h[2:1]/5h[2:1],,,,4/5,4/5,3/6,,
2,2,1/2,,7,7,7/8,,1,1,8,8,{2}1-4[2:1]/8-5[2:1],,
6h[2:1],5,3h[2:1],4,4h[2:1]/5h[2:1],,4/5,3/6,
7h[2:1],8,2h[2:1],1,3/4,2/5,5/6,4/7,4^1[4:3]/5^8[4:3],,,2/7,
{4}2b,1,3/8,,7,8,1/6,,1,1,8,8,1,8,2/7,,
1,2,3,4,5,6,7/8,,8,7,6,5,4,3,2/5,,
6,5,4/7,,3,4,2/5,,5,5,4,4,5,4,3/6,,
4,3,2,1,8,7,5/6,,5,6,7,8,1,2,3/8,,
6h[4:1],5,4/7,,3h[4:1],4,2/5,,7h[4:1],8,1/6,,
1h[4:1],8,1/8,2bV41[4:5]/7bV58[4:5],,,,,,,,,1,1,8,8,1,8,2/7,,
1,2,3/4,5,6,7,1/8,,8,7,5/6,4,3,1/2,3/8,,
6,5,4/7,,3,4,2/5,,5,5,4,4,4/5,4/5,3/6,,
4,3,1/2,8,7,6,4/5,,5,6,7/8,1,2,3/4,2/5,,
2h[4:1],1,3/8,,7h[4:1],8,1/6,,1h[4:1],8,2/7,,1/8,2/7,3/6,,
5,6,7/8,,4,3,1/2,,5,5,4,4,4h[4:1]/5h[4:1],,3/6,,
{1}5/6<3[4:5],,4/3>6[4:5],,5/4qq1[4:5],,1/8qq5[4:5],,
{4}4h[8:3]/5h[8:3],,,{1}3/6,,,,E


EXPERT

(190){1}4p7[1:1]/5,,8p3[1:1]/1,,{8}
5h[4:1]/6h[4:1],,,5/6,,,3h[4:1]/4h[4:1],,,3/4,,,
{4}4/5,4/5,
3,3/4,6,6/5,3,2/4,6,5^2[4:1]/7,,,,1/8,7,5/6,4/5,3/4,
6,5/6,3,3/4,6,5/7,3,4^7[4:1]/2,,,,1/8,2,3/4,5/6,4/7,
3,3/4,2h[8:3]/5,{8},1,,7/8,,5/6,,4/7,{4}4/7,
6h[4:5]/3,3,4,4,5,5,4,5,3h[4:5]/6,6,5,5,4,4,2/5,,
6h[2:1],5,5,4/5,3h[2:1],4,4,4/5,6h[2:1],5,3h[2:1],4,5,4/5,3/6,,
6h[1:1],5,4,3,2h[4:3],3,4,5^8[4:1],,,,{8}1/2,1h[8:3]/2h[8:3],{4},,
3,4,4/5,6,4/5,3,5/6,7,3/4,2,5/6<3[4:3],4h[4:3],,,,,1/8,2/7,
{8}
6h[2:1],,,5,5,,4/7,,3h[2:1],,,4,4,,2/5,,
6,,6,,5/6,,6,,7,7,8,,1/6,,,,
2h[2:1],,,1,1,,3/8,,7h[2:1],,,8,{4}8,1/6,
5h[1:1],6,,6,4h[1:1],3,,3,5,5,4/5,4qq2[4:1]/5pp7[4:1],,,,,
2b/7b,5/6,3h[4:1]/4,1,1/8,5/7,4h[4:1]/5,3<1[2:1],,,,3h[4:1],4,2/5,1/6,2/7,
{8}
3,3,4,,2/5,,6,6,5,,4/7,,3/5,,7/8,,6,6,5,,4/7,,3,3,{4}4,2/5,1/8,,
3/6,7/8,1/2h[4:1],4,4/5,6/8,1h[4:1]/8,2<4[2:1],,,,2h[4:1],1,3/8,4/7,3/6,
{8}
7,7,8,,1/6,,2,2,1,,3/8,,1/7,,3/4,,2,2,1,,3/8,,7,7,{4}8,1/6,2b/7b,,
3h[4:1],4,6h[4:1],5,2h[4:1],4,7h[4:1],5,2h[4:1],1,7h[4:1],8pp3[4:3],,,,,
6,5/7h[4:1],8,1/6,3,4/2h[4:1],1,3/8,2/7,6,2/5,3h[4:1],4,2/5,1/6,2/7,
{8}
3/8,,2,1,2,,1/6,,7,8,7,,3/8,,4/5,,2/5,,3,4,3,,4/7,,6,5,{4}6,2/7,,
1b/8b,3/4,6/7h[4:1],8,1/2,3/4,4/5h[4:1],6>1[2:1],,,,7h[4:1],8,1/6,2/5,3/6,
{8}
2/7,,6,5,5/6,,2/7,,3,4,3/4,,2/5,,7/8,,3/6,,2,1,1/2,,3/6,,7,8,{4}7/8,1b/6b,,
2h[2:1],1,7h[4:1],8,3h[4:1],1,6h[4:1],8,2h[4:1],3,7h[4:1],6<3[2:1]*q3[2:1],,,,
1/8,3h[4:1]/4,2,6h[4:1]/5,7,3h[4:1]/4,1,6h[4:1]/5,8,
4h[2:3]/3,3,5,5,5h[2:1],,,,
{8}
3h[8:3],,,4h[8:3],,,5h[8:3],,,6,,,4/7,,,,
7h[8:3],,,6h[8:3],,,5h[8:3],,,4,,,3/6,,,,
1h[4:1]/2h[4:1],,,1/2,,3>6[2:1]/8,,,,,,,,,4/5,,
7h[4:1]/8h[4:1],,,7/8,,1/6h[4:1],,5,,3/4,,1/2,,3/8,3/8,,
1h[4:1]/8h[4:1],,,2h[4:1]/7h[4:1],,,
{1}3>5[1:2]/6<4[1:2],,,,,E


MASTER

(190){8}
6,,5,,4,,3,4,,6,5h[4:1],,4h[4:1],,
3,,4,,5,,6,,7,8,,2,1w5[4:1],,,,,,
4h[4:1]/6h[4:1],,,4/6,,,
2h[4:1]/8h[4:1],,,2/8,,,
{16}2/6,7,8,1,2,3,4,5,
{8}2/6,,7,7,8,7,1,7,
2V46[8:3],,1,,8,,7,,2/8,,2,2,1,2,8,2,
7V53[8:3],,8,,1,,2,,
5h[4:1]/2,,4,3,1/2,,
4h[4:1]/7,,5,6,7/8,,1/3,,5/7,,
4h[4:1]/8,,6,7,1/8,2>7[4:1]/7,,2/7,,,,
1/8,,2,6,3,4/5,,4/7,{16}6,5,6,,4,,7,,{4}
7b-3[8:1]/8b-3[8:1],7b/8b,
2b>6[8:1]/1b,2b/6b,
{8},3/6,,3/4,4,{4}
3/4,3/5,3/6,3/5,3/6,3/7,3/5,
3/4<8[1:1],3,3,3,3,3,3,3/6,
{8}3/5,5,{4}3/5,3/7,3/7,3/6,3/7,3/8,
1<5[4:3]/3,3,3,3,3,3,3,3/5,4/6,
{8}5/6,5,{4}5/6,4/6,4/6,4/6,3/6,2/6,
4qq8[1:1]/6,6,6,6,6,6,1/6,2/6,3/6,
{8}4/6,4,{4}
4/6,3/6,3/6,1/6,2/6,3/6,
4/6,2/6,3/6,3/6,4/6,4/6,
{8}7,7,5,6,{2}7h[2:1]/5,
{8}1h[8:3],,,3q8[4:1],,,,,1,2/8,3/7,,
5/6,,7/8,,1/2,,3,4,,6,5,,5/7,,1/8,,
2h[2:1]/4,,,,8h[8:3],,,6p1[4:1],,,,,
8,1/7,2/6,,3/4,,6,5,,3,
{4}4>7[4:1],,,1/2,3/8,3h[2:1],,
5h[2:1],,7p3[4:1],,,,
{8}
2-6[8:1],1^6[8:1],2^5[8:1],1,2,,
7pp4[8:3],7,,,3,,2,,
2<6[4:1],,6>2[4:1],,,8,
8v3[8:1]*-4[8:1],,8,,
2h[4:1],,1h[4:1],,8,,7/8,,
1/2,2,2-5[8:1]/3,2,2/8,,
7/8,7,7-4[8:1]/6,7,7/1-5[8:1],,5-1[8:1],,,,
7/8,7,7-4[8:1]/6,7,7/1,,
1/8,1,1-4[8:1]/3,1,7/1-6[8:1],,1,,1/5,,
7-3[8:1],8^3[8:1],7^4[8:1],8,7,,
2qq5[8:3],2,,,6,,7,,
7>3[4:1],,3<7[4:1],,,1,
1v4[8:1]*-5[8:1],,1,,
7h[4:1],,8h[4:1],,1,,1/2,,
7/8,7,7-4[8:1]/6,7,7/1,,
1/2,2,2-5[8:1]/3,2,2/8-4[8:1],,4-8[8:1],,,,
1/2,2,2-5[8:1]/3,2,2/8,,
1/8,8,6/8-4[8:1],8,2/8>3[8:1],,8,,8b,,
7-4[8:1]/8,,4/7,,3,4,3,2,
2-5[8:1]/1,,2/5,,6,5,6,7,
{4}
4-8[8:1]/7-4[8:1],4/7,
1-4[8:1]/5-1[8:1],1/5,
3-8[8:1]/7-4[8:1],3/7,
1q8[1:1]*>8[1:1],,,,,,
6/1^4[4:1],4^7[4:1],7^2[4:1],2,5,
{8}
3,3,2,3,1,3,
8h[4:1],,1h[4:1],,2,,1/2,,
7/8,7,7-4[8:1]/6,7,7/1,,
1/2,2,2-5[8:1]/3,2,2/8-4[8:1],,4-8[8:1],,,,
1/2,2,2-5[8:1]/3,2,2/8,,
1/8,8,6/8-5[8:1],8,2/8-3[8:1],,8,,4/8,,
2-6[8:1],1^6[8:1],2^5[8:1],1,2,,
7pp4[8:3],7,,,3,,2,,
2<6[4:1],,6>2[4:1],,,8,
8-4[8:1]*v6[8:1],,8,,
2h[4:1],,1h[4:1],,8,,7/8,,
1/2,2,2-5[8:1]/3,2,2/8,,
7/8,7,7-4[8:1]/6,7,7/1-5[8:1],,5-1[8:1],,,,
7/8,7,7-4[8:1]/6,7,7/1,,
1/8,1,1-5[8:1]/3,1,7/1<6[8:1],,1,,1b,,
1/2-5[8:1],,2/5,,6,5,6,7,
8/7-4[8:1],,4/7,,3,4,3,2,
{4}
2-5[8:1]/5-1[8:1],2/5,4-8[8:1]/8-5[8:1],4/8,
2-7[8:1]/6-3[8:1],2/6,1/5,3b/7b,
7-3[8:1]/8,3/7,
{8}4,5,4,3,
2-6[8:1]/1,,2/6,,5,4,5,6,
4/7,,3/5,6,5/7,3,2/7,1/8,
2b/7b,,,,,,4/5,,2,3,4,
2,3,4,3,4,5,3,4,5,4,5,6,,
7,6,5,6,5,4,5,4,3,2,
1w5[4:1],,,,,,
2h[4:1]/4h[4:1],,,2/4,,4/5,6,
7-4[8:1]/8,,1/7,,
2-5[8:1]/1,,2/8,,,
5h[4:1]/7h[4:1],,,5/7,,4/5,3,
2-5[8:1]*-6[8:1],,2,,
7-3[8:1]*-4[8:1],,7,,,
1h[4:1]/3h[4:1],,,
6h[4:1]/8h[4:1],,,
{1}
1b>8[1:2]/8b
,
,
,
,
E

Re:MASTER


  • [MAS]先月17日あたりに修正されらしいとのことで51行目と75行目を更新しました。 -- Sea (2018-05-07 07:30:52)
  • 青緑黄赤を追加しました。こちらも修正などあればおねがいします。 -- Sea (2018-05-11 00:54:34)
  • 赤譜面途中で譜面が終わってます -- 名無しさん (2020-04-30 18:19:44)
  • MAS譜面もです -- 名無しさん (2020-04-30 18:20:20)
名前:
コメント:

タグ:

+ タグ編集
  • タグ:

このサイトはreCAPTCHAによって保護されており、Googleの プライバシーポリシー利用規約 が適用されます。

最終更新:2020年05月07日 18:19