エピクロスの虹はもう見えない

アーティスト

BPM EASY BASIC ADVANCED EXPERT MASTER Re:MASTER
155 2 3 6 9+ 11+ 13

EXPERT MASTER Re:MASTER
譜面制作者 mai-star 某S氏 rioN

EASY


BASIC

(155.0){1},
{1}1h[1:1],,
{1}8h[1:1],,
{1}1,
{1}1,
{1}8,
{1}1/8,
{2}1,1,
{1}1,
{2}2,2,
{1}2,
{2}1,1,
{1}1,
{2}8,8,
{1}1/8,
{2}1,1,
{2}8,8,
{1}1-4[4:3],,
{2}3,3,
{2}4,4,
{1}3-6[4:3],,
{2}5,5,
{2}4,4,
{1}5-8[4:3],,
{2}7,7,
{2}8,8,
{1}7-2[4:3],,
{2}2,2,
{2}3,3,
{2}4,4,
{1}4/5,
{2}6,6,
{2}7,7,
{2}8,8,
{1}1b/8b,
{2}7,7,
{2}6,6,
{2}7,7,
{1}8h[2:1],
{2}1,1,
{2}2,2,
{2}1,1,
{1}1b,
{2}2,2,
{4}3,3,3,,
{2}2,2,
{1}1h[2:1],
{2}8,8,
{4}7,7,7,,
{2}7/8,7/8,
{1}8h[2:1],
{1}7,
{1}7,
{1}7-3[4:3],,
{1}2,
{1}2,
{1}2-6[4:3],,
{2}7,7,
{2}8,8,
{1}1h[1:1],,
{2}2,2,
{2}1,1,
{1}8h[2:1],
{1}1/8,
E

ADVANCED

(155.0){1},
{1}1h[1:1],,
{1}8h[1:1],,
{1}2h[1:1],,
{1}7h[1:1],,
{2}2,3,
{2}4,5,
{2}6,7,
{1}7>3[2:1],
{2}2,1,
{2}8,7,
{1}1b/8b,
{1}1-4[2:1]/8-5[2:1],
{1}3h[2:1],
{1}4h[2:1],
{1}5h[2:1],
{1}6h[2:1],
{2}7,7,
{2}2,2,
{1}1h[1:1]/8h[1:1],,
{2}2,1/2,
{2}7,7/8,
{2}3,3/4,
{2}6,5/6,
{2}3/4,5/6,
{2}3/6,2/7,
{1}1b/8b,,
{4}1,2,3,,
{4}8,7,6,,
{4}4,5,2,7,
{1}1-3[4:1]/8-6[4:1],
{4}3,3,4/5,,
{4}6,6,4/5,,
{4}3/4,3/4,5/6,5/6,
{1}2h[2:1]/7h[2:1],
{4}1,1,1,1,
{4}3,3,3,3,
{4}5,5,5,5,
{4}7,7,7,7,
{1}8-4[8:3],
{1}1-5[8:3],
{2}2/7,1/8,
{4}2/7,1b/8b,,,
{4}2,2,2,1/3,
{4}7,7,7,6/8,
{4}3,3,3,2/4,
{4}6,6,6,5/7,
{2}1-3[4:1],8-6[4:1],
{2}1^3[4:1],8^6[4:1],
{2}1b,1/2,
{4}7/8,5/6,3/4,1/2,
{1}1h[1:1],,
{1}8h[1:1],,
{1}3h[1:1],,
{1}6h[1:1],,
{2}2,3/4,
{2}7,5/6,
{2}3,1/2,
{2}6,7/8,
{1}8-3[4:1],
{1}4-7[4:1],
{1}1h[4:3],
{8}8b,8b,
E

EXPERT

(155.0){1},
{1}7^2[2:1],
{1}3p6[8:5],
{1}3>6[1:1],,
{1}1>6[8:5],
{1}8<3[8:5],
{1}2z6[4:3],
{4}8b,8b,,,
{1}1s5[2:1],
{8}4/6,,3/7,,2,8,1,,
{1}8z4[2:1],
{8}3/5,,2/6,,7,1,8,,
{4}2h[4:3],3,4h[4:1],,
{4}7h[4:3],6,5h[4:1],,
{8}1/8,1h[8:3]/8h[8:3],,,,,,,
{1}7s3[2:1],
{4}1h[4:3],5,5,5h[4:3],
{4}3,3,3h[2:1],7,
{1}7p4[2:1],
{8},,3/8,,2,1,2,,
{1}6<3[2:1],
{1}2^7[2:1],
{1}4h[1:1]/5h[1:1],
{4},,2/7,1b/8b,
{8}2,,1,,2,,6,5,
{8}7,,8,,7,,4,3,
{4}6,5,4,3,
{8}8,,7,,1,7,2,8,
{4}3,4-8[4:1],,,
{4}6,5-1[4:1],,,
{1}1^4[2:1]/8^5[2:1],
{4},,,1/8,
{4}1b/8b,,2,2,
{8}8,1,8,1,8,,,,
{8}7,,8,,7h[1971:734],,,8,
{8},1,,2b,,,,2h[8:3],
{4},3,7h[4:1],6,
{4}1h[4:1],8,2/7,,
{4}1/2,5/6,7/8,3/4,
{16}1/8,,,1/8,,,1/8,,2b/7b,,,,,,,,
{8}1h[8:3],,,8,2,7,3,6h[2:1],
{8},5,5,5,,,,,
{8}8h[8:3],,,1,7,2,6,3h[4:1],
{8},4,4,5,5,6,6,,
{2}5-1[8:1],4-8[8:1],
{2}2-6[8:1],7-3[8:1],
{4}1,1-4[4:1]/8-5[4:1],,,
{4}4h[4:1],8h[4:1],2h[4:1],6,
{8}1/8,,,2,3,4,5,6,
{8},7,5,7,,,,,
{8}1/8,,,7,6,5,4,3,
{4},1-4[8:1]/8-4[8:1],,,
{8}8h[4:3],,,1,1,2,2,3h[4:1],
{8},,,3h[4:1],,,,,
{2}1b/8b,2/7,
{4}1/5,2/6,3/7,4/8,
{4}2h[4:3],,,1,
{2}8h[2:1],7h[2:1],
{1}5h[1:1],
{1}7^2[2:1],
{8}2h[8:7],,,,,,,5h[2:1],
{8},,,4h[8:5],,,,,
{1}7q2[4:3],
{4},4,4,4,
{4}1,3,5,7,
{4}8,6,4,2,
{4}8h[4:1],7,1h[4:1],2,
{4}6h[4:1],5,3/4,,
{8}7h[8:3],,,8,,8,1,2h[2:1],
{8},,,7,7,1,8,2h[8:7]/7h[8:7],{1},
{8}1b/8b,1b/8b,
E

MASTER

(155)

{4}8h[8:3],{8},1,2,1,8,{4}7,{8}5,4,3h[8:3],{4},,
2h[8:3],{8},1,2,4,5,6q3[4:2]/7>3[4:2],{4},,,,
1h[8:3],{8},8,7,8,1,{4}2/4h[4:1],{8}5,6,{4}73,{8},{4}2,
{8}18,{4}27,{16}2,1,2,,,3,,,{8}5,36,4,36,5,36,{16}4,5,4,5,4,5,

{4}3h[4:1],{8}5,7,5,2,3,{4}4h[8:7],{8}6,7,8h[8:3],{4},,
6h[4:1],{8}5,2,4,5,6,7<4[4:2]/3>8[4:2],{4},,,,
2h[4:1],{8}1,3,5,7,8,{4}1h[4:3],{8}3,4,{4}5h[4:1],{8},{4}15,
{8}48,{4}26,{16}3,4,3,,,5,,,{8}6,7,5,3-8[4:1],{16}4,4,{4},,


6,6,6,{8}6,57,{4}3,3,3,42,5,5,5,{8}5,36,{4},{8}4,{4}5,{8}3,{4}15,
2,2,2,{8}2,37,{4}5,5,5,26,3,3,3,{8}3,48,{4},{8}1,{4}2,{16}6,5,{4}6,
3h[4:1],{8}5,{4}5h[4:1],{8}7,8,{4}1,3,{8}8,{4}6,57,
6h[4:1],{8}4,{4}4h[4:1],{8}3,2,1-5[8:1],{4},{8}6,7,{4},38,
2h[4:1],{8}5,{4}5h[4:1],{8}7,6,{4}4,2,{8}7,{4}8,26,
7h[4:1],{8}4,{4}4h[4:1],{8}2,3,5-1[8:1],{4},{8}6,7,{4},38,

2v7[4:1],7>2[4:1],2q6[4:1],6q2[4:1],2>5[4:1],5v2[4:1],7,{8},8,
{4}1q5[8:1],{8},8,{4}7p3[8:1],{8},{4}2-6[8:1],8-4[8:1],{8}1b,{4},,
7v2[4:1],2<7[4:1],7p3[4:1],3p7[4:1],7<4[4:1],4v7[4:1],2,{8},2,
{4}2p4[8:1],{8},8,{4}8q5[8:1],{8},1,{16}28,,,17,,,{8}36,{4}1-5[8:1]/8-4[8:1],,


8<5[8:1],{8},1,2,1,8,{4}7>2[8:1],{8}5,4,3p6[8:1],{4},,
2>5[8:1],{8},1,8,7,6,5v2[8:1],{4},4v7[8:1],6v1[8:1],3v8[8:1],
1q5[8:1],{8},8,7,8,1,{4}2p6[8:1],{8}5,4,{4}3q8[8:1],{8}2,{4}1,
{8}15,37,,{16}3,4,25,,,37,,,{8}15,6,4,8>3[8:1],3<6[8:1],{4},,

2>5[8:1],{8},7,8<5[8:1],3,2,1-5[8:1],{4},{8}6,6-4[8:1],{4},,
1/2>6[8:1],{8},7,8v5[8:1],4,3,2-5[8:1],{4},8-5[8:1],1-5[8:1],7-5[8:1],
8p3[8:1],{8},5,4p7[8:1],3,2,{4}2q8[8:1],{8}6,7,{4}7p1[8:1],{8}3,{4}2,
{8}8b/4b,6b/2b,,{16}6,5,74,,,62,,,{8}84,3,5,1<6[8:1],6>3[8:1],{4},,


7>2[8:1]/8,{8}5,{4}5h[4:1],{8}4,4,26,{4},{8}47,68,{4},23,
3<6[8:1]/4,{8}8,{4}8h[4:1],{8}1,1,37,{4},{8}52,38,{4},15,
6>3[8:1]/5,{8}2,{4}2h[4:1],{8}1,1,38,{4},{8}46,15,{4},24,
2<7[8:1]/1,{8}6,{4}6h[4:1],{8}5,5,37,{4},{8}28,15,{4},57,

{8}3>8[8:1],,,7q4[8:1],,,3,3-7[8:1],{4},{8}8,8-4[8:1],{4},3h[4:1],
{8}2q7[8:1],,,6q3[8:1],,,5,47,{4},{8}6,52,{4},67,
{8}5>2[8:1],,,1q6[8:1],,,5,5-1[8:1],{4},{8}2,2-6[8:1],{4},8h[4:1],
{8}1p3[8:1],,,5p7[8:1],,,{4}1,{8}4b/8b,2b/6b,{4},,,
,,,,

E

Re:MASTER

(155.0){1},
{8}6h[2:1],,,7,5h[4:1],4,6h[8:1],7h[4:1],
{8},6h[8:1],5^8[8:3],4^1[4:1],,,,,
{8}7h[8:3],,,6h[8:1],7h[8:1],8h[8:1],1h[8:1],2h[8:1],
{4}3p6[4:1],6<2[4:1],3>6[4:1],,
{8}3h[2:1],,,2,4h[4:1],5,3h[8:1],2h[4:1],
{8},8h[8:1],6h[8:1],4h[8:3],,,8,,
{8}1b/6,3/8b,,4-1[8:1]/5-8[8:1],3/6,,,,
{8}1-5[8:1],8-4[8:1],1-6[8:1],8-3[8:1],,,,,
{8}7h[8:3],,,8h[8:1],6h[8:1],1h[8:1],5h[8:1],2h[4:1],
{8},8h[4:1],2-6[4:1],3h[8:3],,,,,
{8}2h[8:3],,,1h[8:1],3h[8:1],8h[8:1],4h[8:1],7p4[8:5],{1},
{8}7h[8:3],,,8h[8:1],6h[8:1],1h[8:1],5h[8:1],2-6[8:1],
{4},7-3[8:1],1-6[8:1],1,
{8}2b/5,4/7b,,1-5[8:1]/8-4[8:1],3/6,,,,
{8}1-6[8:1],8-3[8:1],1-4[8:1],8-5[8:1],,,,,
{8}3h[4:3]/4^7[4:1],,,,,,2-6[4:1],1h[8:5],
{2},7-3[8:1],
{4}2h[4:1]/1-5[8:1],1,3h[4:1]/2-6[8:1],2,
{8}4h[4:1]/3-7[8:1],,3,,5/6,,4h[4:1],1-5[4:1],
{8}8h[8:3],,,,,8h[4:1],2-6[4:1],3h[2:1],
{8},,,4h[8:3],,,2,,
{4}6h[4:1]/5-1[8:1],5,7h[4:1]/6-2[8:1],6,
{4}8h[4:1]/7-3[8:1],7,1/2,3/8,
{8}6h[4:3]/5^2[4:1],,,,,,7-3[4:1],8h[8:5],
{2},2-6[8:1],
{4}7h[4:1]/8-4[8:1],8,6h[4:1]/7-3[8:1],7,
{8}5h[4:1]/6-2[8:1],,6,,3/4,,5h[4:1],7-3[4:1],
{8}8h[8:3],,,,,1h[4:1],7-3[4:1],6h[2:1],
{8},,,5,7,8,1,2,
{4}3h[4:1]/4-8[8:1],4,2h[4:1]/3-7[8:1],3,
{4}1h[4:1]/2-6[8:1],2,7/8,4/5,
{4}2^5[4:1],5^8[4:1],8^3[4:1],3,
{8}4h[8:1],5h[8:1],6h[8:1],7h[8:1],8z4[4:1],,,2,
{8}2-6[8:1],,2,7,7-3[8:1],,7,1-5[8:1],
{8},1b/8-4[8:1],,7/8b,,,,,
{4}7^4[4:1],4^1[4:1],1^6[4:1],6,
{8}5h[8:1],4h[8:1],3h[8:1],2h[8:1],1h[4:1],,8,7h[8:1],
{8}5h[8:1],4h[8:1],2h[8:1],4h[8:1],5h[8:1],7h[8:1],8h[8:1],1,
{16}2/4,,,5/7,,,3/6,,1/8,,,,2b/7b,,,,
{8}3/4h[2:1],,,5,3h[4:1],1-6[8:1],8h[2:1],,
{8},5-1[8:1],4h[2:1],,,,7,,
{8}6/5h[8:3],,,4h[8:1],3h[8:1],2h[8:1],1-5[8:1],5,
{4}1^6[4:1],6^3[4:1],3-7[8:1],8,
{8}6/5h[2:1],,,4,6h[4:1],8-3[8:1],1h[2:1],,
{8},4-8[8:1],5h[8:3],,,2,4/8,,
{16}1b/2,,5b/6,,,,1h[8:1],,3h[16:3],,,5h[16:3],,,7-3[8:1],,
{8}8-4[8:1],7<1[8:3],8,7,,,,,
{8}6/5h[2:1],,,4,6h[4:1],8-3[8:1],1h[2:1],8,
{8},4-8[8:1],5h[2:1],4,,,2,,
{8}3/4h[8:3],,,5h[8:1],6h[8:1],7h[8:1],8-4[8:1],4,
{4}8^3[4:1],3^6[4:1],6-2[8:1],1,
{8}3/4h[2:1],,,5,3h[4:1],1-6[8:1],8h[2:1],1,
{8},5-1[8:1],4h[8:3],5,,7,2/6,,
{16}7/8b,,3/4b,,,,8h[8:1],,7h[16:3],,,6h[16:3],,,2-6[8:1],,
{8}1-5[8:1],2>8[8:3],1,2,,,,,
{4}1h[4:1],2-6[8:1],3h[4:1],4-8[8:1],
{4}5h[4:1],6-2[8:1],7h[4:1],8-4[8:1],
{1}1>8[4:5],
{8},,,,,,2,1,
{4}8h[4:1],7-3[8:1],6h[4:1],5-1[8:1],
{4}4h[4:1],3-7[8:1],2h[4:1],1-5[8:1],
{1}8<1[4:5],
{4},,8,3/6,
{8}7h[4:1],,6h[4:1],,5h[4:1],,4-8[8:1],3h[8:3],
{4},7h[4:1],6h[4:1],5h[4:1],
{8}3h[4:1],,2h[4:1],,1h[8:3],,6-2[8:1],5h[2:1],
{8},,3-7[8:1],4h[2:1],,,1-5[4:1],6h[8:7],
{8}1,,,2,,8z4[8:3],3h[8:5],8,
{8},,,7,1/5,2/6,3/7,4p7[8:5]/8p3[8:5],{1},
{8}4b/8b,3b/7b,
E

名前:
コメント:

タグ:

+ タグ編集
  • タグ:

このサイトはreCAPTCHAによって保護されており、Googleの プライバシーポリシー利用規約 が適用されます。

最終更新:2022年07月17日 13:53