エンドマークに希望と涙を添えて

BPM EASY BASIC ADVANCED EXPERT MASTER Re:MASTER
257 4 6 8+ 11+ 14 -

EXPERT MASTER Re:MASTER
譜面制作者 はっぴー 小鳥遊さん -

EASY

(257){1},,,,,,
{2}6,6,6,,
7,7,7,,8,8,8,,1,1,1,,2,2,2,,
{1}
3h[1:1],,4h[1:1],,5h[1:1],,6h[1:1],,
{2}
5,5,6,,7,7,8,,1,1,2,,3,3,4,,
5b,,
{4}
4,4,,,3,3,,,2,2,,,1,1,,,
8,8,,,7,7,,,6,6,,,4/5,,,,
5,5,,,6,6,,,7,7,,,8,8,,,
1,1,,,2,2,,,3,3,,,4,4,,,
{1}
4-1[4:5],,,1,8-5[4:5],,,4/5,
{2}
5,5,6,6,7,7,8,,1,1,2,2,3,3,4,,
{1}
3-6[4:5],,,5,7-2[4:5],,,1,
2-6[4:5],,,7,7-3[4:5],,,2,
{2}
1,1,2,2,3,3,4/5,,5,5,6,6,7,7,1/8,,
{1}
8h[2:1],7h[2:1],6h[2:1],5,
4h[2:1],3h[2:1],2h[2:1],1,
8b,,
{4}
8,8,8,,7,7,7,,6,6,6,,4/5,,,,
4,4,4,,3,3,3,,2,2,2,,1/8,,,,
1,1,1,,2,2,2,,3,3,3,,4/5,,,,
5,5,5,,6,6,6,,7,7,7,,1/8,,,,
{1}
7-2[4:5],,,2,3-6[4:5],,,6,
{2}
5,5,6,6,7,7,8,8,
1,1,2,2,3,3,4b,,
{4}
4,4,4,,3,3,3,,2,2,2,,1,1,1,,
8,8,8,,7,7,7,,6,6,6,,4/5,,,,
{1}4h[4:23],,,,,,,,E


BASIC

(257){1}4,,5,,4,4,5,5,
{2}4,4,4,,3,3,3,,2,2,2,,1,1,1/8,,
{1}8h[1:1],,1h[1:1],,2h[1:1],,3h[1:1],,
{2}4,4,4,,5,5,4/5,,6,6,6,,7,7,7/8,,1b/8b,,
7,7,6,6,5,4,4/5,,3,3,2,2,1,8,1/8,,
2,2,3,3,4,5,4/5,,6,6,7,7,8,1,1/8,,
1/2,1/2,1/2,,7/8,7/8,7/8,,1/2,1/2,1/2,,7/8,7/8,7/8,,
{1}1-5[4:7],,,,8-4[4:7],,,,
1h[1:1],,8h[1:1],,7h[1:1],,6h[1:1],,
{2}5,5,5,5,4,4,4,4,3,3,3,3,2h[1:1],,,,
1,1,1/8,,2,2,1/2,,3,3,3/4,,5,5,4/5,,
{1}4-1[4:7],,,,5-8[4:7],,,,1b/8b,,
{4}
1,1,1,,2,2,2,,3,3,3,,4,4,4/5,,5,5,5,,6,6,6,,7,7,7,,7,7,7/8,,
7,7,7,,6,6,6,,5,5,5,,4,4,4/5,,3,3,3,,2,2,2,,1,1,1,,8,8,1/8,,
{1}
1h[1:1]/2h[1:1],,3h[1:1]/4h[1:1],,
5h[1:1]/6h[1:1],,7h[1:1]/8h[1:1],,
{4}
1,1,1,,8,8,1/8,,7,7,7,,6,6,5/6,,
5,5,5,,4,4,4/5,,4/5,,,,,,,,
2,2,2,,3,3,3,,4,4,4,,5,5,4/5,,
6,6,6,,7,7,7,,
{1}1h[1:1]/8h[1:1],,1b/8b,,,,,,,E


ADVANCED

(257){1},,,,{2}
6,5/6,3,3/4,5,4/5,3/6,2b/7b,
{4}
6,6,6,,4,4,4/5,,3,3,3,,5,5,4/5,,7,7,7,,1/8,1/8,
{2}1pp4[1:1]/8qq5[1:1],,,,3/6,
6h[2:1],5,5/6,4/5,3h[2:1],4,3/4,2/5,
6h[2:1],5,3h[2:1],4,5h[2:1],4h[2:1],5-1[4:1],,
{4}
2,,1/3,,2,2,2,,7,,6/8,,7,7,7,,
6,6,5,,3,3,4,,5/6,,3/4,,4/5,4/5,4-1[2:1]/5-8[2:1],,,,,,
2,2,1/2,,7,7,7/8,,6,5,4,3,4/5,4/5,4/5,,
6,6,5/6,,3,3,3/4,,2,1,8,7,1/8,1/8,2/7,,
6,6,5,5,4,3,1/2,,3,3,4,4,5,6,7/8,,
7,7,8,8,1,2,3/4,,2,2,1,1,7/8,7/8,1/6,,
3h[2:1],,4,,5,6,4/7,,6h[2:1],,5,,4,3,2/5,,
2,2,1^6[2:1]/2,,,,4/5,,3h[2:1],,4,,5,4,3/6,,
3/4,3/4,3/4,3/4,5/6,5/6,5/6,5/6,
3/4,3/4,5/6,5/6,3/4,3/4,2/5,,
7/8,7/8,7/8,7/8,1/2,1/2,1/2,1/2,
1h[2:1]/8h[2:1],,,,1/8,2/7,3b/6b,,
{1}
3h[1:1],4h[1:1],5h[1:1],6,
7h[1:1],8h[1:1],1h[1:1],2,
3h[2:1]/4h[2:1],5h[2:1]/6h[2:1],
7h[2:1]/8h[2:1],1h[2:1]/2h[2:1],
{4}
3/4,,5/6,,7/8,,1/2,,4/5,,6/8,,1/3,,2b/7b,,
6h[2:1],,5h[2:1],,6,6,4/7,,3h[2:1],,4h[2:1],,3,3,2/5,,
7h[2:1],,8h[2:1],,7,7,1/6,,1h[2:1],,8h[2:1],,1,1,2/7,,
{1}5<3[4:5],,4>6[4:5],,8<2[4:5],,1>7[4:5],,1h[2:1]/8h[2:1],
{4}1/8,2/7,3b/6b,,
8,8,7,7,6,5,3/4,,5/6,5/6,3/4,3/4,5/6,5/6,4/7,,
1,1,2,2,3,4,5/6,,3/4,3/4,5/6,5/6,3/4,3/4,2/5,,
4,3,2/5,1,8,7,1/6,,5,6,4/7,8,1/2,1/2,3/8,,
1,2,3/8,4,5,6,4/7,,5,4,3/7,2,1/8,1/8,2/7,,
3h[2:1],,4h[2:1],,3,4/5,5/6,,
6h[2:1],,5h[2:1],,6,4/5,3/4,,
1/2,1/2,1^6[4:1]/2,,,,4/5,,8h[2:1],,1h[2:1],,8,1/8,2b/7b,,
4,3,1/2,7/8,1/6,2/5,3/4,,
5,6,7/8,1/2,3/8,4/7,5/6,,
8,7,5/6,3/4,2/5,1/6,7/8,,
1h[2:1]/8h[2:1],,,,1/8,2/7,3b/6b,,
1/2,3,4,5/6,7/8,6,5,3/4,1/2,3,4,5/6,7/8,6,4/5,3,
1/2,1/2,3/4,5/6,7/8,7/8,5/6,3/4,1/2,3/8,4/7,5/6,
3/4,2h[2:1]/5h[2:1],,,{1}1b/8b,,,,,,,E


EXPERT

(257){1},,,,{4}
5h[4:3]/4,4,4,4>5[2:1],,,,,
6h[4:1],8h[4:1],1h[4:1],3,
3h[4:1],1h[4:1],8h[4:1],6,
6h[4:7]/5,5,8,8,4,4,1,1,
3h[1:1]/4,4,1,1,5^8[4:1],,,1/8,
2h[1:1]/1,1,4,4,8^5[4:1],,,4/5,
{8}4/6,4/6,,3/5,3/5,,4/5,4h[8:7]/5h[8:7],
{1},
{4}
5,5,4,4,7,5,4,2,4,4,5,5,5/7,4/5,2/4,,
4,4,5,5,2,4,5,7,5,4,3,3>6[2:1],,,,4/5,
5/6,4/6,3/6,2/6,2^5[4:1],,6^1[4:1],,
3,3/4,2/5,1/6,7/8,5/6,4/7,,
3/4,3/5,3/6,3/7,7^4[4:1],,3^8[4:1],,
6,5/6,4/7,3/8,1/2-6[4:1],,,,
1h[4:3]/5,5,5,5<4[4:3],,,,,
5/6,4/7,3/4,2/5,1,5/6,8,3/4,
1-5[4:1],,8-4[4:1],,1h[4:7],,3,5,7,{8}8,8,,6,{4}6,
7h[4:1],5h[4:1],4h[4:1],2,
2h[4:1],4h[4:1],5h[4:1],7,
7h[4:15]/8,6,8,6,2,4,2,4,1,5,8,4,1,5,8,4,
3h[4:15]/4,2,4,2,6,8,6,8,5,1,4,8,5,1,4,8,
5-3[4:1]/6,6,6,5/6,5-2[4:1]/6,6,6,5/6,
5-1[4:1]/6,6,6,5/6,5-8[4:1]/6,6,6,5/6,
4/7,3/8,2>7[4:1]/1h[4:3],,,2,3/8,
2/5,1/6,7/8,5/6,4/5,3^8[2:1]/4^7[2:1],,,,
{8}
1-5[4:1]/7,,6,,7,7,7,,8-4[4:1]/6,,5,,6,6,6,,
1-5[4:1]/7,,6,,7,7,7,,8-4[4:1]/6,,5,,6,6,6,,
1-4[4:1]/8,,7,,8,8,8,,4-1[4:1]/5,,6,,5,5,5,,
{4}
4h[4:3]/8,,5h[4:1],,4/5,1/8,2b/7b,,

6h[2:7]/5,,5,5,4,,4,4,3,,3,3,4,5,3,,
3h[2:7]/4,,4,4,5,,5,5,6,,6,6,5,4,6,,
{1}
1-6[4:1]/7h[2:1],8-3[4:1]/2h[2:1],
1-5[4:1]/7h[2:1],8-4[4:1]/2h[2:1],
{4}
1/5,2,3/7,4,1/5,6,3/7,8,
1/5,7,2/6,5,4/8,3/7,2/6,,
{8}
5h[4:1]/6,6,6,,7h[4:1]/6,6,6,,7/8,,5/6,,4/7,,,,
4h[4:1]/3,3,3,,2h[4:1]/3,3,3,,1/2,,3/4,,2/5,,,,
{4}
7,4/6,2,3/5,8,4/6,1,3/5,2^5[2:1]/6^1[2:1],,,,4/8,3/7,2/6,,
5h[4:1],6h[4:1],7h[4:1],8h[4:1],1h[4:1],2h[4:1],3h[4:1],4h[4:1],
5h[4:1],6h[4:1],7h[4:1],8h[4:1],1h[4:1],2h[4:1],3h[4:1],4,
4h[4:1],3h[4:1],2h[4:1],1,5h[4:1],6h[4:1],7h[4:1],8,
4-1[4:1],,8-5[4:1],,4>5[2:1],,,,
8h[4:7],,,,4,4,4,4>5[4:3],,,,,
3/4,2/5,5/6,4/7,8,3/4,1,5/6,
8-4[4:1],,1-5[4:1],,8h[4:7],,6,4,2,{8}1,1,,3,{4}3,
2h[4:1],4h[4:1],5h[4:1],7,
7h[4:1],5h[4:1],4h[4:1],2,
2h[4:15]/1,3,1,3,7,5,7,5,8,4,1,5,8,4,1,5,
6h[4:15]/5,7,5,7,3,1,3,1,4,8,5,1,4,8,5,1,
4-6[4:1]/3,3,3,3/4,4-7[4:1]/3,3,3,3/4,
4-8[4:1]/3,3,3,3/4,4-1[4:1]/3,3,3,3/4,
2/5,1/6,7V52[2:1]/8h[1:1],,,,7,1/6,
4/7,3/6,1/2,3/4,4/5,5/6,7/8,,
{8}
8-4[4:1]/2,,3,,2,2,2,,1-5[4:1]/3,,4,,3,3,3,,
8-4[4:1]/2,,3,,2,2,2,,1-5[4:1]/3,,4,,3,3,3,,
8-5[4:1]/1,,2,,1,1,1,,5-8[4:1]/4,,3,,4,4,4,,
{4}
5h[4:3]/1,,4h[4:1],,4/5,1/8,2b/7b,,
1/8,1/8,6/7,6/7,4/5,4/5,2/3,2/3,
1/8,6/7,4/5,2/3,1/8,6/7,4/5,3/6,
7/8,5/6,3/4,1/2,7/8,5/6,3/4,1/2,
{8}
1/7,1/7,,2/8,2/8,,1/8,1h[4:1]/8h[4:1],
{4},1/8,,,
{1}7h[4:23]/8<1[4:11],,,,
{4}8,8,8,8,8,8,8,
{1}8,,,,E


MASTER

(257){1}3h[1:1],4h[1:1],5h[1:1],6h[1:1],
{8}2,,25,,2,,25,,2,,25,,2,,25,,1,8,3,6,2,7,4,5h[4:1],,4,6,3,7,2,
{4}
8-5[8:1],8-3[8:1],8<5[8:1],8>3[8:1],
8-5[8:1],8-3[8:1],8<5[8:1],8>3[8:1],
8-5[8:1],8-3[8:1],8<5[8:1],8>3[8:1],8,
{8}6,5,6,47,,2,1-6[8:1],2,
{4}
1-4[8:1],1<6[8:1],1>4[8:1],1-6[8:1],
1-4[8:1],1<6[8:1],1>4[8:1],1,
{8}57,57,,24,24,,45,4/5h[8:7],{4},6,6,2b,

{4}5,5,4,4,3,{8}3,4,3,,4,5,
{4}3,3,6,6,{8}3,5,4,5,3,,6,5,6,,3,4,
{4}3,45,45,{8}6,5,
{4}6,5,4,3,{8}4,5,4,5,4h[4:3],,8,8h[8:3],
{4},,25,48,15,47,26,{8}7-4[8:1],8,
{4}7,3,48,25,37,15,{8}2,1,
2-6[8:1],1,2,,7-4[8:1],8,7,,
2-5[8:1],1,2,,7<4[8:1],8,7,,
2>5[8:1],1,{4}2,7,56,34,
{8}5,4,5,4,5h[4:3],,1,1h[8:3],
{4},,1,1,1,

3-8[8:1]/7-4[8:1],3b/7b,2/6,
{8}5,1,6,2,7/3<6[8:1],,8,8,,15,15,,7,8,4,3,1,2,6,5,{16}8,7,6,5,
{4}48,{16}8,1,2,3,{4}48,26,1b/8b,
{8}2,5,4,7,2/6>3[8:1],,1,1,,48,48,,7,7,1,1,3,3,5,5h[4:1],,6,5,4,3,2,
{4}
1>4[4:1],4q1[4:1],1>4[4:1],4,8<5[4:1],5p8[4:1],8<5[4:1],5,
1>4[4:1],4q1[4:1],1>4[4:1],4,8<5[4:1],5p8[4:1],8<5[4:1],5,8,
{8}2,1,2,2,7,8,7,7,3,1,3,3,6,8,6,6,2,2,4,4,6,6,8,8,
{16}1,2,3,4,5,6,7,8,1,2,3,4,5,6,7,8,
{4}15,{8}7-4[8:1],8,{4}7,2,34,
{8}2-5[8:1],1,{4}2,7,65,{8}8-4[8:1],1,
{4}8,2,34,{8}6-1[8:1],5,6,4,3,2,
{4}
1<6[4:1],6-2[4:1],2>1[2:1],5h[2:1],,,
6-2[4:1],2-6[4:1],6>3[4:1],3>8[4:1],8<5[4:1],5,{8}4,3,2,1,
{16}8,7,6,5,4,3,2,1,{8}
48,,2,1,3,8,4,7,5h[4:1],,6-8[8:1],6,,3,4,2,
15,,7,8,6,1,5,2,4h[4:1],,3-1[8:1],3,,6,5,7,
{4}4/8-3[8:1],2-6[8:1],5-1[8:1],4-8[8:1],6-3[8:1],
1-6[8:1],7-4[8:1],3>5[4:1],8h[2:1],,,,2b/7b,4b/5b,1b/8b,,

{2}
1h[4:1],2h[4:1],3h[4:1],4h[4:1],
5h[4:1],6h[4:1],7h[4:1],8h[4:1],
{4}1,2,3,4,5,6,7,8,{8}1,2,3,4,5,6,7,8,
{16}1,2,3,4,5,6,7,8,{4}1b,,
37,3-8[8:1]/7-4[8:1],,,
62,6-1[8:1]/2-5[8:1],,,
5h[4:1]/7h[4:1],,
4h[4:1]/2h[4:1],,
2V41[8:3]/7V58[8:3],,,,

{16}
18,2,3,4,5,6,7,8,1,2,3,4,5,6,7,8,
15,4,3,2,1,8,7,6,5,4,3,2,1,8,7,6,
15,2,3,4,15,8,7,6,
15,2,3,4,15,8,7,6,
{1}1h[2:1]/5h[2:1],
{8}1h[4:1]/2,2,2,,1h[4:1]/8,8,8,,{16}1,2,3,4,1-5[8:1],8,7,6,{2}1b,
{8}8h[4:1]/7,7,7,,8h[4:1]/1,1,1,,{16}8,7,6,5,8-4[8:1],1,2,3,{2}8b,
{8}2,5,4,5,7,5,4,5,3,5,4,5,{2}3h[4:1]/6h[4:1],
{8}8,4,5,4,8,4,5,4,{2}8-4[4:1],1b,

{12}
2,3,4,7,6,5,2,3,4,7,6,5,1,2,3,8,7,6,1,2,3,8,7,6,
4,3,2,5,6,7,4,3,2,5,6,7,3,2,1,6,7,8,3,2,1,6,7,8,4,3,2,1,8,7,
36,2,1,8,7,6,25,1,8,7,6,5,14,8,7,6,5,4,
{2}1h[4:3]/3,8h[4:1],
{16}2,3,4,5,6,7,8,1,27,6,5,4,3,2,1,8,
{4}7h[2:3]/2b,,,,8,8,8,

6-1[8:1]/2-5[8:1],6b/2b,7/3,
{8}4,8,3,7,2<7[8:1]/6,,5,5,,84,84,,2,1,5,6,8,7,3,4,{16}1,2,3,4,
{4}51,{16}1,8,7,6,{4}51,73,8b/1b,{8}7,4,5,2,7>2[8:1]/3,,4,4,,51,51,,2,2,8,8,6,6,4,4h[4:1],,3,4,5,6,7,
{4}
8<5[4:1],5p8[4:1],8<5[4:1],5-1[4:1],1>4[4:1],4q1[4:1],1>4[4:1],4-8[4:1],
8<5[4:1],5p8[4:1],8<5[4:1],5-1[4:1],1>4[4:1],4q1[4:1],1>4[4:1],4,1,
{8}8,8,8,8,2,2,2,2,4,4,4,4,6,6,6,6,7,7,5,5,3,3,1,1,
{16}8,7,6,5,4,3,2,1,8,7,6,5,4,3,2,1,

{4}84,
{8}2>5[8:1],1,{4}2,7,65,
{8}7<4[8:1],8,{4}7,2,34,
{8}1q5[8:1],8,{4}1,7,65,
{8}3-8[8:1],4,3,5,6,7,
{4}8>3[4:1],3-7[4:1],7<8[4:2],4h[4:2],,,
3q7[4:1],7q3[4:1],3<6[4:1],
6<1[4:1],1>4[4:1],4,
{8}5,6,7,8,{16}1,2,3,4,5,6,7,8,

{8}1-5[8:1]/5,,
7-4[8:1],7,2-6[8:1],2,8-4[8:1],8,
1-5[8:1],1,8-3[8:1],8,2-5[8:1],2,
7-3[8:1],7,1-5[8:1],1,7-4[8:1],7,
2-6[8:1],2,8,8,1,,2>5[8:1]/6,26,
{2}2/6<1[8:1],{8}2,2,48,48,7,7,15,15,26,26,37,37,48,48,51,51,
{4}6h[16:15]/2h[16:15],,,,{16}5b,4,3,2,1b/5b,8,7,6,{4}1b/5b,3/7-3[8:1],

2-6[8:1]/7,2/7-4[8:1],3-1[8:1]/7,3/8-4[8:1],
2-5[8:1]/8,2/6-2[8:1],1-5[8:1]/6,1/8-5[8:1],
1w5[8:1]/8,1,8w4[8:1],8,{8}2,1,8,37,,15,
{4}1-5[8:1]/5,1/8-3[8:1],2-5[8:1]/8,2/7-4[8:1],3-1[8:2]/7,3/8w4[8:3],8,1w5[8:1],1,
{8}37,37,,26,26,,57,57,,24,24,,,,
{12}4,5,4,

{4}3b>4[4:18]/6b,,,,,,,,,,,,1,1,1,1,1,1,1,1,1,1,1w5[8:1],1b,,,,,,,,,E

Re:MASTER


  • 青緑黄赤譜面を追加しました。また、MASTER譜面440ノーツ付近のスライドを1本修正しました。(3>5[2:1]→3>5[4:1]) -- Sea (2018-05-14 11:03:37)
名前:
コメント:

タグ:

+ タグ編集
  • タグ:

このサイトはreCAPTCHAによって保護されており、Googleの プライバシーポリシー利用規約 が適用されます。

最終更新:2020年05月07日 19:21