デスパレイト

BPM EASY BASIC ADVANCED EXPERT MASTER Re:MASTER
145 2 5 7+ 10+ 13+ -

EXPERT MASTER Re:MASTER
譜面制作者 ぴちネコ Jack -

EASY


BASIC


ADVANCED


EXPERT


MASTER

(145){8}4/5,4/5h[4:3],,,,
2,3,4,5/4h[8:7],,,,,7,6,5h[4:1],,4h[4:3],,,,
7,6,5,4/5h[8:5],,,,,{16}4,5,4,5,
{8}3/6,3/6,4h[4:3]/5h[4:1],,,,7,6,5,
4h[8:3]/5h[8:7],,,,,2,3,4h[2:1],,
5h[4:3],,,,2,3,4,4h[8:3]/5h[8:3],,,,,
{16}4,5,4,5,,3/6,3/6,,{8}
2^5[8:1],1,8,7,6^3[8:1],7,8,1,
2-5[8:1],2,1-6[8:1],1,3,4,5,3/6,
7^4[8:1],8,1,2,3^6[8:1],2,1,8,7,8,
1qq4[4:1]/6pp3[4:1],,,,,,
2^7[8:1],6,5,4,3^6[8:1],7,8,1,
2/8,3/7,6/4-8[8:1],,2/4,1-5[8:1],2/8,1b,,
4/8,1^6[8:1]/5^2[8:1],,1/5,,
1/5,4^7[8:1]/8^3[8:1],,4/8,,
4/8,3^6[8:1]/7^2[8:1],2/6,3b/7b,,3/7,
3/7-4[8:1],,7/2-5[8:1],,2/6v1[8:1],,
6/3v8[8:1],,3/7v2[8:1],,7/4v1[8:1],,
4/8v5[8:1],,8/3p6[8:1],,3/7^4[8:1],,
7/2^5[8:1],,2/6q2[8:1],,6/3p7[8:1],,
3/5q4[8:1],,5/4>5[4:1],,,,,
7^4[8:1],8,1,2,3^6[8:1],2,1,8,
7-4[8:1],7,8-3[8:1],8,6,5,4,3/6,
2^5[8:1],1,8,7,6^3[8:1],7,8,1,2,1,
3qq6[4:1]/8pp5[4:1],,,,,,
7^2[8:1],3,4,5,6^3[8:1],2,1,8,
1/7,2/6,3/5-1[8:1],,5/7,8-4[8:1],1/7,8b,,
1/5,8^3[8:1]/4^7[8:1],,8/4,,
4/8,1p3[8:1]/5p7[8:1],,1/5,,,
1-5[8:1],,1bV75[8:1]/5bV31[8:1],,,,
7/8,5/6,3h[16:3]/4h[16:3],,3/4,
7V13[8:1]/8>4[8:1],,7V53[8:1]/8<4[8:1],,7/8,,
1/2,3^8[8:1]/8,7,6h[4:1],,5,3/4,1h[16:3]/8h[16:3],,
1/8,4q1[8:1]/5^8[8:1],,4>5[8:3]/5p4[8:3],,,,,,
{16}3,4,3,,2/6,,3/7,,{4}
4-2[8:1]/8-6[8:1],4-1[8:1]/8-5[8:1],4-8[8:1],
{8}2,3,4qq1[2:1]/8qq5[2:1],,4/8,,,,,3/6,5/8,3/6,
1-5[8:1]/4-8[8:1],,1/4,,2/6,4/8,,6^3[8:1],,
{24}2,1,8,{8}7,
4/5,1/3,6/7,2/4,1/8,5/7,2/3,6/8,
{24}1,2,3,4,5,6,7,8,1,2,3,4,
{16}5b-1[8:1],,,1b-5[8:1],,,8b<1[8:12],,,,,
{4}1,8,7,6,5,4,{16}3,,
8,1,8h[16:3],,,1h[16:3],,,2h[8:1],,
3h[16:3],,,4h[16:3],,,5h[8:1],,
6^3[8:1],,,,,,,,,3/6,,1,8,2,7,3,6,
4,5,4,5,2h[8:1],,1,2,5,4,5,4,7h[8:1],,8,7,
{24}1,2,3,4/5,,,8,7,6,4/5,,,
{16}2,2,8,8,1,1,7,7,
1h[4:1],,,,8,1,8,1,{24}
8,7,6,1,2,3,7,6,5,2,3,4,
{2}5<4[4:3],,
2^7[8:3],3>6[2:1],4>5[4:3],,
7^2[8:3],6<3[2:1],5<4[4:3],,
{8}
5h[2:1],4,4,4,3h[2:1],4,4,4,
6h[2:1],4,4,4,2h[2:1],4,4,4,
7h[4:1],4,1h[4:1],4,8h[4:1],5,1h[4:1],3,
8h[4:1],6,1h[4:1],2,8h[4:1],7,1,
3h[8:5]/6h[8:5],,,,,,,
3/6<3[8:1],,,,6/3>6[8:1],,,,
{24}8-4[8:1],1/7,2/6,
{8}3/5,
6-2[8:1]/8b,,3-7[8:1]/6b,,
1-5[8:1]/3b,,6^1[8:1]/1b,,
3h[4:1],,4,5/6,1h[16:3]/8h[16:3],,1/8,
4^1[8:1]/5p8[8:1],,4q5[8:3]/5<4[8:3],,,,,,
{16}6,5,{8}6,7/8,3/4,
1<5[8:1]/2V86[8:1],,1>5[8:1]/2V46[8:1],,1/2,,
3/7,2/6,1pp4[8:3]/5pp8[8:3],,1/5,,,,,
3/6,1/4,3/6,
5-1[8:1]/8-4[8:1],,5/8,,3/7,1/5,,3^6[8:1],,
{24}7,8,1,{8}2,
4/5,6/8,2/3,5/7,1/8,2/4,6/7,1/3,
{24}8,7,6,5,4,3,2,1,8,7,6,5,
{16}4b-8[8:1],,,8b-4[8:1],,,1b,,,,,,
3pp2[8:3]/7pp6[8:3],,2/6,,,,,,,,,,,,
2,2,5,5,4,4,7,7,1,1,8,,,,2p4[8:1]/7q5[8:1],,,,,,,,
4/5,,3,3,2/4,,3/5,,6,6,5/7,,
{8}6<3[4:1],4/5,3>6[4:1],,,,
4h[4:1],,5,5/7,4,2/4,3,
{4}3pp6[4:5]/7pp2[4:5],,,,,,,
2v7[16:1]/6v3[16:1],,,,,,,E

Re:MASTER


名前:
コメント:

タグ:

+ タグ編集
  • タグ:

このサイトはreCAPTCHAによって保護されており、Googleの プライバシーポリシー利用規約 が適用されます。

最終更新:2020年06月14日 17:12