Excalibur ~Revived resolution~

BPM EASY BASIC ADVANCED EXPERT MASTER Re:MASTER
200 4 6 9 12 14+ -

EXPERT MASTER Re:MASTER
譜面制作者 Jack 小鳥遊さん -

EASY

(200){4}
1,,,1,,,2,,,2,,,3,,,3,,,4,,,4,,,
5,,,5,,,6,,,6,,,7,,,7,,,8,,,8,,,
8b,8,,7,7,,6,6,,5,,,4,4,,3,3,,2,2,,1,,,
1,1,,2,2,,3,3,,4,,,5,5,,6,6,,7,7,,8,,,
8h[4:3],,,,,,7h[4:3],,,,,,6h[4:3],,,,,,5,,,4/5,,,
4h[4:3],,,,,,3h[4:3],,,,,,2h[4:3],,,,,,1,,,1/8,,,
1,1,1,,,,2,2,2,,,,3,3,3,,,,4,4,4,,,,
5,5,5,,,,6,6,6,,,,7,7,7,,,,8,8,8,,,,
{2}
8-5[1:1],,,,,,
4-1[1:1],,,,,,
1b,,,1,,,2,,,3,,,
{4}4,,,4/5,,,
4,4,4,,,,3,3,3,,,,2,2,2,,,,1,1,1,,,,
8,8,8,,,,7,7,7,,,,6,6,6,,,,5,5,5,,,,
{2}4/5,,,
3-6[1:1],,,,,,
7-2[1:1],,,,,,
1h[4:3],,,8h[4:3],,,
1h[4:3]/8h[4:3],,,1b/8b,,,
{4}
1,1,,2,2,,3,3,,4,4,,5,5,,6,6,,7,7,,1/8,1/8,,
8,8,,7,7,,6,6,,5,5,,4,4,,3,3,,2,2,,1,,,
2,2,2,1,1,1,8,8,8,7,,,
{1}1/8,,,,,E


BASIC

(200){8}
4,,,,,,3/5,,,,,,4,,,4,,,3/5,,,,,,
5,,,,,,4/6,,,,,,5,,,5,,,4/6,,,,,,
8,,,,,,1/7,,,,,,8,,,8,,,1/7,,,,,,
1,,,,,,2/8,,,,,,1,,,,,,1/8,,,,,,
{4}
2,2,,3,3,,4,4,,5,5,,6,6,,7,7,,8,8,,1/8,,,
7,7,,6,6,,5,5,,4,4,,3,3,,2,2,,1,1,,1/8,,,
8-5[4:5],,,,,,,,,,,,
1-4[4:5],,,,,,,,,,,,
8-3[4:5],,,,,,,,,,,,
1-6[4:5],,,,,,,,,,,,
8,8,,1/8,1/8,,2,2,,1/2,1/2,,3,3,,3/4,3/4,,4h[4:3]/5h[4:3],,,,,,
6,6,,5/6,5/6,,7,7,,7/8,7/8,,1,1,,1/8,1/8,,1h[4:3]/8h[4:3],,,,,,
{2}
7,,,5,,,3,,,2,,,1b,,,,,,,,,
{4}
4,,,4/5,,,4/5,,,3/6,,,
7,7,7,8,,,8,8,8,1,,,1,1,1,2,,,2,2,2,3,,,
3,3,3,4,,,4,4,4,5,,,5,5,5,6,,,6,6,6,7,,,
1/8,,1/8,1/8,,,
1h[4:3],,,8,,,8h[4:3],,,1,,,
2h[4:3],,,1,,,7h[4:3],,,8,,,
2h[4:3],,,1,,,7h[4:3],,,8,,,
1/2,,,7/8,,,8h[4:3],,,1b,,,
1,1,1,2,2,2,3,3,3,3/4,,,
5,5,5,6,6,6,7,7,7,7/8,,,
8,8,8,7,7,7,6,6,6,5/6,,,
4,4,4,3,3,3,2,2,2,1/2,,,
1/8,,,2/7,,,
1/8,1/8,1/8,1/8,1/8,1/8,
{1}2b/7b,,,,,E


ADVANCED

(200){8}
6h[8:3],,,5p4[4:3],,,,,,,,,,,,5/6,,,3,,,3/4,,,7h[8:3],,,8,,,
2h[8:3],,,1p8[4:3],,,,,,,,,,,,2/7,,,3h[8:3],,,4,,,
6h[8:3],,,5p4[4:3],,,,,,,,,,,,5/6,,,2h[8:3],,,4,,,
7h[8:3],,,5,,,2V48[2:1],,,,,,,,,,,,
{4}
7,8,1/6,2,1,3/8,8,1,2/7,4/5,3/6,,
3,4,2/5,6,5,4/7,4,5,3/6,5/7,2/4,1/8,
2,1,3/8,7,8,1/6,1,8,2/7,4/5,2/7,,
6/8,5,4,1/3,4,5,3/6,2/7,1/8,6/8,1/3,1b/8b,
1h[4:3],,,2h[4:3],,,3h[4:3],,,4h[4:3],,,5p4[4:3],,,,,,3/4,,,2,,,1b/8b,,,
7h[4:3],,,6h[4:3],,,5,,,4/5,,,
2h[4:3],,,3h[4:3],,,4,,,
6h[4:1],5,4/7,4h[4:1]/7,5,2/7,1/8,1/2,2/3,3h[4:1]/4h[4:1],,2/5,
{8}5,5,4,4,{4}6,5/6,6/7,7/8,1/8,2h[4:1],3,3h[4:1],4,4/5,
3h[4:1],4,2/5,2h[4:1]/5,1,3/8,1/8,7/8,6/7,1/8,1/2,2/3,
2/8,1/7,6/8,1/7,2/8,1/3,4/8,3/7,2^5[8:1]/6^1[8:1],,,,
1b/8b,,,
7h[4:3],,,6h[4:3],,,5h[4:3],,,
4h[4:3],,,3h[4:3],,,2h[2:3],,,,,,1b,,,,,,
2,,,3,,,4h[4:3],,,5,,,6/7,,,4/5,,,2<3[4:3]/3,,,,,2/7,
2h[4:1],1,3/4,1/2,{8}8,8,{4}1,7h[4:1],8,5/6,7-4[4:1]/8-4[4:1],,,
2h[4:1],1,4/5,7h[4:1],8,4/5,4/5,3/6,2V48[2:1]/7,,,,
{8}7/8,,6,6,4,,1/2,,3,3,5,,6/8,,5,5,{4}3,1-6[4:1]/2-5[4:1],,,
6,7-4[4:1],,3,2-5[4:1],,6,1,7/8,1/2,3,8,
{8}4,4,5,5,3,3,6,6,2,2,
{4}7-3[8:1],,,,
2h[4:3],,,1V35[4:3],,,,,,6h[4:3],,,
7h[4:3],,,8V64[4:3],,,,,,
1^4[4:3]*^6[4:3],,,,,,
8^3[4:3]*^5[4:3],,,,,,
4h[4:5],,,5h[2:1],,,
{8}4,5,4,5,4,5,
{4}4,1/8,2b/7b,
6h[4:1]/5,4,1/3,7/8,{8}6,5,{4}6,
3h[4:1]/4,5,6/8,1/2,{8}3,4,{4}3,
6h[4:1]/5,7,7/8,
3h[4:1]/4,2,1/2,
3-8[4:1]/8-5[4:1],,,
1-4[4:1]/6-1[4:1],,,
2h[4:1]/1,8,5/7,3/4,{8}2,1,{4}2,
7h[4:1]/8,1,2/4,5/6,{8}7,8,
7-4[4:1],,,,2,2,2-5[4:1],,,,8,8,
{4}8-3[4:1]*-5[4:1],,,,1/2,4/5,7/8,
{8}
1,8,7,6,5,4,3,2,1,8,7,6,4/5,4/5,3/6,3/6,2/7,2/7,
1b/8b,,3b/6b,,
{1}1b-5[8:1]/8b,,,,,E


EXPERT

(200){8}
5h[8:3],,4,4h[8:3],,5,5h[8:3],,4,4h[8:3],,,5^8[4:1],,,2^5[4:1],,,1,,,,,,
4h[8:3],,5,5h[8:3],,4,4h[8:3],,5,5h[8:3],,,4^1[4:1],,,7^4[4:1],,,8,,,,,,
1/5,,2/6,,3/7,,4/8,,1/5,1/5,4/8,,
3/7,,2/6,,1/5,,4/8,,1/5,1/5,4/8,,
1/5,,2/6,,3/7,,4/8,,2/7,2/7,3/6,,
4/5,3/6,2/7,1/8,,3/6,3/6,,4/5,,1/8,,
{4}
2-5[8:1],1-6[8:1],,
8-3[8:1],7-4[8:1],,
1-5[8:1],8-4[8:1],,
2-6[8:1],7-3[8:1],,
2^5[8:1],1^6[8:1],,
1^4[8:1],8^5[8:1],,
8^3[8:1],7^4[8:1],,
1/3,6/8,2/7,
1-6[8:1],6-1[8:1],,
7-4[8:1],4-7[8:1],,
2-5[8:1],5-2[8:1],,
8-3[8:1],3-8[8:1],,
1-6[8:1],7-4[8:1],2-5[8:1],8-3[8:1],1-5[8:1],8,
{8}7-4[8:1],7,1-5[8:1],1,8-4[8:1],8,2-6[8:1],2,7,7,1b,,
{4}
7h[4:9],,5,5h[2:1],,,5,4,3,
2h[4:9],,4,4h[2:1],,,4,5,6,
7p3[4:1],8,1,2p6[4:1],3,4,5,,4/5,3/6,,,
{8}3/4,,,4/5,,,5/6,,,,,,5h[4:3]/6,,,,,,4h[4:3],,,,,,3,,,4/5p4[2:1],
{4},,,,
1/8,5-1[8:1]/6,8-4[8:1],3,2/7,4/5,
1/8,4-8[8:1]/3,1-5[8:1],6,2/7,4/5,
{8}
1,8,2,7,3,6,4qq2[8:1],,8qq6[8:1],,,,
1,2,3,4,5/6,,7,6,5,4,3,2,
{4}
1/8,4-8[8:1]/3,1-5[8:1],6,2/7,4/5,
1/8,5-1[8:1]/6,8-4[8:1],3,2/7,1/8,
{8}
4,5,4,6,4,7,3,8,2,8,1,,2/4,3,3,3,2/4,,
5/7,6,6,6,5/7s3[2:1],,,,,,,,
{4}
1,,,7,,,3,,,5^2[4:1],,,7p3[4:1],,,1<2[1:1],,,,,,1b,,,,,,
3,,,5,,,4,,,6,,,2/3,,,6/7,,,
{16}1,8,1,8,1,8,1,8,1,8,1,8,1,2,3,4,5,6,7,8,{8}1b-5[8:1],,
8,,7,,6,6,5/7,,2/4,,8,8,1/7-4[8:1],,3-8[8:1],,6,,5,5,1,1,
2/8-4[8:1],,1,,2,,3,3,2/4,,5/7,,1,1,7,6,5,2,3,4,6/5-1[8:1],,8-4[8:1],,3,,
7/2-6[8:1],,1h[4:1],,5,4/8,
3/7-3[8:1],,8h[4:1],,4,1/5,
6/2-6[8:1],,1h[4:1],,5,4/8,
{16}
3h[8:1]/7h[8:1],,,1h[8:1]/5h[8:1],,,
4h[8:1]/8h[8:1],,,2h[8:1]/6h[8:1],,,
{8}
4/8,,5/6,,1/2,3/8,
4/7,,3/4,,7/8,1/6,
2,3,4,7,6,5,2,1,8,2/7,3>6[1:1]/6,4/5,
{4},,,,,,
2h[2:1]/7-3[4:1],,,2^5[4:1],5^8[4:1],8^3[4:1],3,,4^1[4:1]/8q5[4:1],,,,
7h[2:1]/2-6[4:1],,,7^4[4:1],4^1[4:1],1^6[4:1],6,,5^8[4:1]/1p4[4:1],,,,
2^5[8:1],,7/8,2-6[8:1]/3-8[8:1],,,
7^4[8:1],,2/1,7-3[8:1]/6-1[8:1],,,
4^1[4:1],,,5^8[4:1],,,3^6[4:1]/7p2[4:1],,,1-5[8:1]/8-4[8:1],1/8,2b/7b,
{8}
1,2,3,4,5/6-8[8:1],,4-2[8:1],,5-1[8:1],,3,,
8,7,6,5,4/3-1[8:1],,5-7[8:1],,4-8[8:1],,6,,
1,1,2/8,3/7,4/6,,8,8,1/7,2/6,3/5,,4/8,,1/5,2/6,3/7,4/8,1-6[8:1]/5-2[8:1],,,,3/7,,
6,5,4,3,2/1^6[8:1],,1^4[8:1],,1-5[8:1],,1,,
3,4,5,6,7/8^3[8:1],,8^5[8:1],,8-4[8:1],,8,,
1/2,1/2,7/8,7/8,2/6,2/6,
3/4,3/4,5/6,5/6,3/7,3/7,
2-6[8:1],,1-5[8:1],,8-4[8:1],,7-3[8:1],,6-2[8:1],,
8w4[8:1],,8b,,,3/6,8/1w5[8:1],,1b,,,4/5,2/7,,
{16}1,8,1,8,1,8,1,8,1,8,1,8,
{4}2b-5[8:1]/7b-4[8:1],2b/7b,
{1}1b^4[8:1]/8b^5[8:1],,,,,E


MASTER

(200){8}
4/5,,2,1/3,,7,6/8,,4/5,3/6,,,
4/7,5,6,2/5,4,3,4/5,,2/7,2/7,,,
4/5,,7,6/8,,2,1/3,,4/5,3/6,,,
3/8,1,2,1/6,8,7,3/6,5,4,2/7,,,
4/5,,1/2,3/8,,4/5,{24}6,5,6,{8}5,7,1/6,,,
4/7,5,6,2/5,4,3,4/5,,2/7,2/7,,,
4/5,,7/8,1/6,,4/5,{24}3,4,3,{8}4,2,3/8,,,
1/5,2/6,3/7,4/8,,1/8,
2-6[8:1]/7,,7-3[8:1]/2,,1/7,,
2-5[8:1]/7,,8-4[8:1]/2,,1-5[8:1]/8,,7p4[4:1]/1,,4/7,,,,
7-4[8:1],,1-5[8:1]/7,,8-4[8:1]/1,,2qq5[4:1]/8,,2/5,,,,
2-5[8:1],2,2/8-4[8:1],8,8/1-5[8:1],,7pp3[4:1]/1,,4/7,,,,
7-4[8:1],7,7/1-5[8:1],1,1/8-4[8:1],,2-6[8:1]/8,,7-3[8:1]/2,,3/7,,
2-5[8:1],2,2/8-4[8:1],8,8/1-5[8:1],,
1/6-1[8:1],,6/2-5[8:1],,2/7-3[8:1],,7/4-1[8:1],,
4/6-3[8:1],,6/1-5[8:1],,1/7-4[8:1],,7/1w5[8:1],,1,,
3/7,3/7,4/8,4/8,1/5,1/5,4/8,4/8,3/7,3/7,2/6,2/6,
{16}1,5,2,6,3,7,4,8,3,7,2,6,
{4}1-4[8:1]/5-8[8:1],1-6[8:1]/5-2[8:1],5-1[8:1]/1,
2h[2:3]/5,,,3,,,7h[2:3],,,6,,,3h[2:3],,,4,,,5p4[4:3],,,,,,
3h[2:1]/4,,4,6h[2:1]/5,,{8}7,6,{4}5h[4:1],4h[4:1],3h[4:1],
4h[4:1],5h[4:1],6h[4:1],7h[4:3],,,5h[4:3],,,4q5[4:3],,,,,
{8}
8^6[8:1]/4,3,8-5[8:1]/2h[4:1],,8-4[8:1],,
8^6[8:1]/1,,8-5[8:1]/1h[4:1],,8-4[8:1],,
8^2[8:1]/1,1,8-3[8:1]/6,,8-4[8:1]/5,,
8^2[8:1]/6,,8-3[8:1]/7h[4:1],,8-4[8:1],,
8^6[8:1]/5,5,8-5[8:1]/2,2,8-4[8:1]/2,2,
3-1[8:1]/8^6[8:1],2,3-5[8:1]/8-5[8:1],,3-1[8:1]/8-4[8:1],,3/8,,
2h[4:1]/6,,5,4/6,3/7,2/8,1/7,3/5,2/8,4/6,
1^3[8:1]/8,4/5,1-4[8:1]/6h[4:1],,1-5[8:1],,
1^7[8:1]/6,,1-6[8:1]/2h[4:1],,1-5[8:1],,
1^3[8:1]/2,2,1-4[8:1]/6,,1-5[8:1]/7,,
1^7[8:1]/8,,1-6[8:1]/4,,1-5[8:1]/3,,
1^3[8:1]/2,,1-4[8:1]/6,6,1-5[8:1]/7,7,
1^7[8:1]/7,7,1-6[8:1]/4,4,1-5[8:1]/3,3,1/2,2,
{16}2,5,3,4,1,6,3,4,
{24}8,7,8,7,8,7,1/6,,,
{32}1h[8:1]/2,3,4,5,6,,,,8h[8:1]/7,6,5,4,3,,,,,,,,
{4}2/7pp4[4:5],,,3,,,2q5[4:5],,,7,,,6p4[4:5],,,1,,,
5h[8:11],,,,,{8},1b,{4},,,,,,
4h[4:3],,,5h[4:3],,,4h[4:3],,,5h[4:3],,,4h[4:3],,,5h[8:5],,
{16},,4,5,1,8,2,7,1,8,3,6,1,8,2,7,
{32}1,2,3,4,5,6,7,8,1,2,3,4,5,6,7,8,
{16}1b/5b,,,,1>5[8:1]/8,,,,1/5,,6,,7,,,,8<4[8:1]/1,,,,
4/8,,3,,2,,1/6,2/7,3/8<4[8:1],,,,2/8,,1,,8,,,,2/7,,4/5,,
2,8,3,1,4,,3/8,2/7,6/1>5[8:1],,,,1/7,,8,,1,,,,
7<3[8:1]/2,,,,7/2,,1,,8,,2/5,3/6,7/4>8[8:1],,,,
{8}4/6,5,4-8[8:1],,4/6-1[8:1],,6/3-8[8:1],,3/7,,
5>1[8:1]/6,,5/8,7,6/8,5,4<8[8:1]/3,,4/1,2,3/1,4,5>1[8:1]/6,,5/8,7,6/8,5,
{16}
1h[8:1]/4h[8:1],,,5h[8:1]/7h[8:1],,,2h[8:1]/4h[8:1],,,5h[8:1]/8h[8:1],,,
{8}5>1[8:1]/2,,5/7,6,4/8,5,4<8[8:1]/7,,2/4,3,1/5,4,
1-5[8:1],1,2-6[8:1],2,3-7[8:1],3,
8-4[8:1],8,7-3[8:1],7,6-2[8:1],6,
4,4,3/5,3/5,2/6,2/6,
{16}1,7,4,5,2,8,3,6,1,8,4,5,
{8}
7>6[4:9]/2h[2:1],,,,,,7,,7,,8,,1h[4:1],,,,1,1,2h[2:1],,,,,,
2<3[4:9]/7h[2:1],,,,,,4,,5,,6,,8h[4:1],,,,7,7,6h[2:1],,,,,,
8>7[4:9]/3h[2:1],,,,,,8,,8,,1,,2h[4:1],,,,3,3,4h[2:1],,,,,,
8h[4:5],,,,,,1h[2:1],,,,,,
{16}4,5,4,5,4,5,4,5,4,5,4,5,
4-2[8:1]/5-7[8:1],,,,4-8[8:1]/5-1[8:1],,,,4/5,,,,
2,7,2,7,1,8,1,8,2,7,2,7,1,2,3,4,8,7,6,5,1,2,3,4,
6,3,6,3,5,4,5,4,6,3,6,3,5,6,7,8,4,3,2,1,5,6,7,8,
4,7,4,7,3,6,3,6,2,5,2,5,1,2,3,4,8,7,6,5,1,2,3,4,
6,3,6,3,7,4,7,4,8,5,8,5,8,7,6,5,4/8,3,2,1,8/4,7,6,5,
3,7,2,6,1,5,1,5,2,6,3,7,4,3,2,1,8/4,7,6,5,4/8,3/7,2/6,1/5,
4,8,5,1,6,2,7,3,6,2,5,1,4,5,6,7,8/4,1,2,3,4/8,5/1,6/2,7/3,
4>8[8:1]/8<4[8:1],,,,4v6[8:1]/8v2[8:1],,,,,,,,
1>5[8:1]/5<1[8:1],,,,1v7[8:1]/5v3[8:1],,,,,,,,
4,5,4,5,3,6,3,6,2,7,2,7,1/8,,
{32}8h[8:1]/7,6,5,4,3,,,,1h[8:1]/2,3,4,5,6,,,,,,,,
{16}2,4,3,7,5,6,2,4,3,7,5,6,1,3,2,8,6,7,1,3,2,8,6,7,
{24}2,3,4,7,6,5,1,2,3,8,7,6,2,3,4,5,6,7,
{4}
1-6[8:1]/8-6[8:1],1-3[8:1]/8-3[8:1],1-5[8:1]*w5[8:1]/8,
{1}1b,,,E

Re:MASTER


  • MASTERの最後の部分がずれてたので修正しました! -- 嵐雅 (2020-04-30 09:09:23)
名前:
コメント:

タグ:

+ タグ編集
  • タグ:

このサイトはreCAPTCHAによって保護されており、Googleの プライバシーポリシー利用規約 が適用されます。

最終更新:2021年05月09日 20:05